↑↓torrent.by
Поиск
Логин: Регистрация
Пароль: Восстановить пароль

Турист (2021) WEB-DLRip от ExKinoRay | iTunes

Скачать turist-2021-web-dlrip-ot-exkinoray-itunes.torrent
U Магнитная ссылка Размер: 745.36 MB Раздают: 326 Качают: 29 Добавлен: 2021-05-25 20:41:47
Турист (2021) WEB-DLRip от ExKinoRay | iTunes

Название: Турист
Год выхода: 2021
Жанр: Боевик
Режиссер: Андрей Батов
В ролях: Алексей Шевченков, Евгений Терских, Александр Барановский, Владимир Петров (VIII), Сергей Воробьёв (IV), Георгий Болонев, Глеб Темнов, Сергей Гарусов, Флавия-Гертруда Мбайабе, Уилфред Уильямс

О фильме:
Декабрь 2020 года. Бывший сотрудник полиции Гриша Дмитриев в составе небольшой группы российских инструкторов прибывает в Центральноафриканскую Республику. Грише командировка не кажется сложной, ведь в задачи инструкторов входит только обучение солдат местной армии основам тактики и методам ведения боя. Однако все с самого начала идет не так. Несколько бандитских группировок идут на столицу, чтобы устроить в стране государственный переворот. Русские инструкторы совместно со своими подопечными дают отпор бандитам. Но для Гриши, никогда не принимавшего участие в военных действиях, эта командировка превращается в настоящий ад.

Страна: Россия
Студия: Паритет Фильм, Триикс Медиа
Продолжительность: 01:39:09
Перевод: Не требуется - iTunes

Файл
Кодек: XviD
Качество: WEB-DLRip
Видео: 688x288 (2.39:1), 24.000 fps, XviD build 73 ~914 kbps avg, 0.19 bit/pixel
Звук: 48 kHz, MP3, 2 ch, ~128.00 kbps avg
Субтитры: Отсутствуют

Релиз:                                                  
Рип изготовил:


[+] MediaInfo
General
Complete name               : D:Турист2021.WEB-DLRip by.ExKinoRay & Shkiper.avi
Format                      : AVI
Format/Info                 : Audio Video Interleave
File size                   : 745 MiB
Duration                    : 1 h 39 min
Overall bit rate            : 1 051 kb/s
Writing application         : VirtualDubMod 1.5.10.3 | www.virtualdub-fr.org || (build 2550/release)
Writing library             : VirtualDubMod build 2550/release

Video
ID                          : 0
Format                      : MPEG-4 Visual
Format profile              : Advanced Simple@L5
Format settings             : BVOP1 / Custom Matrix
Format settings, BVOP       : 1
Format settings, QPel       : No
Format settings, GMC        : No warppoints
Format settings, Matrix     : Custom
Codec ID                    : XVID
Codec ID/Hint               : XviD
Duration                    : 1 h 39 min
Bit rate                    : 914 kb/s
Width                       : 688 pixels
Height                      : 288 pixels
Display aspect ratio        : 2.40:1
Frame rate                  : 24.000 FPS
Color space                 : YUV
Chroma subsampling          : 4:2:0
Bit depth                   : 8 bits
Scan type                   : Progressive
Compression mode            : Lossy
Bits/(Pixel*Frame)          : 0.192
Stream size                 : 648 MiB (87%)
Writing library             : XviD 73

Audio
ID                          : 1
Format                      : MPEG Audio
Format version              : Version 1
Format profile              : Layer 3
Codec ID                    : 55
Codec ID/Hint               : MP3
Duration                    : 1 h 39 min
Bit rate mode               : Constant
Bit rate                    : 128 kb/s
Channel(s)                  : 2 channels
Sampling rate               : 48.0 kHz
Frame rate                  : 41.667 FPS (1152 SPF)
Compression mode            : Lossy
Stream size                 : 90.8 MiB (12%)
Alignment                   : Aligned on interleaves
Interleave, duration        : 42  ms (1.00 video frame)
Interleave, preload duratio : 504  ms
Writing library             : LAME3.99r
Encoding settings           : -m s -V 4 -q 2 -lowpass 17 -b 128



Скриншоты:
[+] Всего файлов в раздаче - 1:

Показать еще раздачи по запросу турист:
2021-06-29 U Турист (2021) WEB-DLRip-AVC 2.61 GB ↑ 165 ↓ 19
2021-06-28 U Турист (2021) WEB-DL 1080p от EniaHD 4.55 GB ↑ 142 ↓ 58
2021-05-30 U Турист (2021) WEB-DLRip от Files-x | iTunes 1.46 GB ↑ 47 ↓ 27
2021-05-28 U Турист (2021) WEB-DLRip-AVC от Files-x | iTunes 1.46 GB ↑ 368 ↓ 25
2021-05-26 U Турист (2021) WEB-DLRip-AVC | iTunes 1.41 GB ↑ 342 ↓ 59
2021-05-25 U Турист (2021) WEB-DLRip от ELEKTRI4KA | iTunes 1.46 GB ↑ 332 ↓ 28
2021-05-25 U Турист (2021) WEB-DL 720p от ELEKTRI4KA | iTunes 2.98 GB ↑ 114 ↓ 23

Отзывы
Зарегистрируйтесь чтобы добавить комментарий.
Торрент клиент
byTorrent - программа для загрузки торрент-файлов.
Скачать byTorrent
Обратная связь
Copyleft ©