↑↓Torrent.by
Поиск
Логин: Регистрация
Пароль: Восстановить пароль
Загрузка...

Черновик (2018) BDRip 1080p от OlLanDGroup | GER Transfer | Лицензия

Скачать chernovik-2018-bdrip-1080p-ot-ollandgroup-ger-transfer-licenziya.torrent
U Магнитная ссылка Размер: 9.97 GB Раздают: 100 Качают: 73 Добавлен: 2018-09-18 11:50:54
Черновик (2018) BDRip 1080p от OlLanDGroup | GER Transfer | Лицензия

Оригинальное название: Черновик
Год выпуска: 2018
Жанр:  Фантастика, экранизация
Выпущено: Россия, New People Film Company
Режиссер: Сергей Мокрицкий
В ролях: Никита Волков, Евгений Ткачук, Ольга Боровская, Юлия Пересильд, Северия Янушаускайте, Евгений Цыганов, Елена Яковлева, Ирина Демидкина, Андрей Мерзликин, Андрей Руденский

О фильме: Молодой москвич Кирилл - талантливый дизайнер компьютерных игр. В один прекрасный день он оказывается напрочь стертым из памяти всех, кого он знал и любил. Кирилл узнает, что выбран для важной и таинственной миссии. Его предназначение - стать таможенником между параллельными мирами, коих во Вселенной десятки. Сможет ли Кирилл разгадать тайну этих таинственных миров и того, кто и зачем ими управляет? И действительно ли наша Земля - всего лишь воображаемый «черновик», параллельный мир, которого в Реальности не существует...

Качество: BDRip (1080p)
Видео: MPEG-4 AVC, 10215 Kбит/с, 1920x804, 24.000 кадр/с
Аудио: Русский (AC3, 6 сh, 640 Кбит/с), (DTS, 6 сh, 1509 Кбит/с)
Размер: 9.97 ГБ
Продолжительность: 01:55:34
Язык: Русский

Озвучивание - (Лицензия)
Сохранены оригинальные чаптеры как на Blu-Ray.

Релиз:  Rip by:


[+] x264

x264 [info]: frame I:973   Avg QP:15.23  size:192146
x264 [info]: frame P:39260 Avg QP:17.63  size: 93277
x264 [info]: frame B:126205 Avg QP:19.28  size: 39570
x264 [info]: consecutive B-frames:  3.3%  4.0% 10.8% 18.0% 18.2% 35.0%  4.4%  1.0%  1.6%  1.8%  1.9%
x264 [info]: mb I  I16..4: 11.3% 77.2% 11.6%
x264 [info]: mb P  I16..4:  2.4% 38.6%  2.2%  P16..4: 22.5% 23.3%  6.0%  0.7%  0.0%    skip: 4.4%
x264 [info]: mb B  I16..4:  0.5%  5.8%  0.3%  B16..8: 34.5% 20.3%  3.3%  direct: 9.6%  skip:25.7%  L0:43.6% L1:42.0% BI:14.3%
x264 [info]: 8x8 transform intra:88.3% inter:57.2%
x264 [info]: direct mvs  spatial:98.0% temporal:2.0%
x264 [info]: coded y,uvDC,uvAC intra: 87.4% 87.1% 69.7% inter: 34.3% 35.6% 15.1%
x264 [info]: i16 v,h,dc,p: 20% 10%  9% 62%
x264 [info]: i8 v,h,dc,ddl,ddr,vr,hd,vl,hu: 11%  8% 17%  9% 10% 11% 10% 11% 13%
x264 [info]: i4 v,h,dc,ddl,ddr,vr,hd,vl,hu: 34%  9% 12%  6%  9%  9%  8%  7%  7%
x264 [info]: i8c dc,h,v,p: 50% 20% 16% 14%
x264 [info]: Weighted P-Frames: Y:2.0% UV:1.1%
x264 [info]: ref P L0: 47.4% 10.7% 24.0%  8.7%  8.1%  1.0%  0.0%
x264 [info]: ref B L0: 71.0% 20.7%  6.5%  1.8%
x264 [info]: ref B L1: 90.9%  9.1%
x264 [info]: kb/s:10201.12




[+] Инфо-файл


Общее
Уникальный идентификатор                 : 207410055098842253053721223146456076752 (0x9C09B93D134D8E4EB8C8828C2E21D1D0)
Полное имя                               : D:ЗагрузкиChernovik.2018.x264.BDRip.(1080p).OlLanDGroup.mkv
Формат                                   : Matroska
Версия формата                           : Version 4 / Version 2
Размер файла                             : 9,97 Гбайт
Продолжительность                        : 1 ч. 55 м.
Общий поток                              : 12,4 Мбит/сек
Название фильма                          : Черновик.2018.Rip by: ollan
Дата кодирования                         : UTC 2018-09-18 05:05:23
Программа кодирования                    : mkvmerge v6.5.0 ('Isn't she lovely') built on Oct 20 2013 12:50:05
Библиотека кодирования                   : libebml v1.3.0 + libmatroska v1.4.1
Обложка                                  : Yes
Attachments                              : Cover - Chernovik.png

Видео
Идентификатор                            : 1
Формат                                   : AVC
Формат/Информация                        : Advanced Video Codec
Профиль формата                          : High@L4.1
Настройки формата                        : CABAC / 5 Ref Frames
Параметр CABAC формата                   : Да
Параметр ReFrames формата                : 5 кадров
Идентификатор кодека                     : V_MPEG4/ISO/AVC
Продолжительность                        : 1 ч. 55 м.
Битрейт                                  : 10,2 Мбит/сек
Ширина                                   : 1920 пикселей
Высота                                   : 804 пикселя
Соотношение сторон                       : 2,40:1
Режим частоты кадров                     : Постоянный
Частота кадров                           : 24,000 кадра/сек
Цветовое пространство                    : YUV
Субдискретизация насыщенности            : 4:2:0
Битовая глубина                          : 8 бит
Тип развёртки                            : Прогрессивная
Бит/(Пиксели*Кадры)                      : 0.276
Размер потока                            : 8,04 Гбайт (81%)
Библиотека кодирования                   : x264 core 146 r2538 121396c
Настройки программы                      : cabac=1 / ref=5 / deblock=1:-2:-3 / analyse=0x3:0x133 / me=umh / subme=11 / psy=1 / psy_rd=1.00:0.15 / mixed_ref=1 / me_range=64 / chroma_me=1 / trellis=2 / 8x8dct=1 / cqm=0 / deadzone=21,11 / fast_pskip=0 / chroma_qp_offset=-3 / threads=12 / lookahead_threads=3 / sliced_threads=0 / nr=0 / decimate=0 / interlaced=0 / bluray_compat=0 / constrained_intra=0 / bframes=10 / b_pyramid=2 / b_adapt=2 / b_bias=0 / direct=3 / weightb=1 / open_gop=0 / weightp=2 / keyint=240 / keyint_min=23 / scenecut=40 / intra_refresh=0 / rc_lookahead=40 / rc=2pass / mbtree=0 / bitrate=10215 / ratetol=1.0 / qcomp=0.60 / qpmin=0 / qpmax=69 / qpstep=4 / cplxblur=20.0 / qblur=0.5 / vbv_maxrate=50000 / vbv_bufsize=62500 / nal_hrd=none / filler=0 / ip_ratio=1.40 / pb_ratio=1.30 / aq=1:1.00
Язык                                     : Russian
Default                                  : Да
Forced                                   : Нет

Аудио #1
Идентификатор                            : 2
Формат                                   : AC-3
Формат/Информация                        : Audio Coding 3
Идентификатор кодека                     : A_AC3
Продолжительность                        : 1 ч. 55 м.
Вид битрейта                             : Постоянный
Битрейт                                  : 640 Кбит/сек
Каналы                                   : 6 каналов
Расположение каналов                     : Front: L C R, Side: L R, LFE
Частота                                  : 48,0 КГц
Частота кадров                           : 31,250 кадров/сек (1536 SPF)
Битовая глубина                          : 16 бит
Метод сжатия                             : С потерями
Размер потока                            : 529 Мбайт (5%)
Заголовок                                : Лицензия
Язык                                     : Russian
Service kind                             : Complete Main
Default                                  : Да
Forced                                   : Нет

Аудио #2
Идентификатор                            : 3
Формат                                   : DTS
Формат/Информация                        : Digital Theater Systems
Идентификатор кодека                     : A_DTS
Продолжительность                        : 1 ч. 55 м.
Вид битрейта                             : Постоянный
Битрейт                                  : 1509 Кбит/сек
Каналы                                   : 6 каналов
Расположение каналов                     : Front: L C R, Side: L R, LFE
Частота                                  : 48,0 КГц
Частота кадров                           : 93,750 кадра/сек (512 SPF)
Битовая глубина                          : 24 бит
Метод сжатия                             : С потерями
Размер потока                            : 1,22 Гбайт (12%)
Заголовок                                : Лицензия
Язык                                     : Russian
Default                                  : Нет
Forced                                   : Нет

Меню
00:00:00.000                             : ru:Chapter 01
00:02:40.291                             : ru:Chapter 02
00:05:48.375                             : ru:Chapter 03
00:10:01.333                             : ru:Chapter 04
00:13:08.041                             : ru:Chapter 05
00:19:07.000                             : ru:Chapter 06
00:22:56.333                             : ru:Chapter 07
00:29:18.625                             : ru:Chapter 08
00:36:24.583                             : ru:Chapter 09
00:41:59.583                             : ru:Chapter 10
00:46:21.208                             : ru:Chapter 11
00:52:56.291                             : ru:Chapter 12
01:00:12.416                             : ru:Chapter 13
01:03:48.333                             : ru:Chapter 14
01:12:32.458                             : ru:Chapter 15
01:18:14.583                             : ru:Chapter 16
01:21:37.291                             : ru:Chapter 17
01:25:17.125                             : ru:Chapter 18
01:28:57.083                             : ru:Chapter 19
01:32:48.208                             : ru:Chapter 20
01:37:04.000                             : ru:Chapter 21
01:44:50.333                             : ru:Chapter 22
01:47:57.250                             : ru:Chapter 23
01:50:27.958                             : ru:Chapter 24
01:55:33.958                             : ru:Chapter 25



Скриншоты:
[+] Всего файлов в раздаче - 1:
Chernovik.2018.x264.BDRip.(1080p).OlLanDGroup.mkv9.97 GB

Текущая раздача:
ДатаКомментарии    РазмерПиры
2018-09-18 U Черновик (2018) BDRip 1080p от OlLanDGroup | GER Transfer | Лицензия 9.97 GB ↑ 100 ↓ 73

Показать еще раздачи по запросу черновик:
2018-09-28 U Черновик (2018) BDRip-AVC от HELLYWOOD | GER Transfer | Лицензия 1.46 GB ↑ 64 ↓ 19
2018-09-22 U Черновик (2018) HDRip от Scarabey | Лицензия 1.45 GB ↑ 120 ↓ 19
2018-09-20 U Черновик (2018) BDRip-AVC от HELLYWOOD | GER Transfer | Лицензия 2.18 GB ↑ 81 ↓ 42
2018-09-19 U Черновик (2018) BDRemux 1080p | Лицензия 31.63 GB ↑ 40 ↓ 29
2018-09-19 U Черновик (2018) BDRip 720p | GER Transfer | Лицензия 6.36 GB ↑ 101 ↓ 38
2018-09-18 U Черновик (2018) BDRip-AVC от Files-x | Лицензия 1.46 GB ↑ 315 ↓ 94
2018-09-18 U Черновик (2018) BDRip от MegaPeer | GER Transfer | Лицензия 1.46 GB ↑ 123 ↓ 48

Отзывы
Зарегистрируйтесь чтобы добавить комментарий.
Обратная связь
Copyleft ©