↑↓Torrent.by
Поиск
Логин: Регистрация
Пароль: Восстановить пароль
Загрузка...

Следующее поколение / Next Gen (2018) WEBRip 720p | D, L1

Скачать sleduyuschee-pokolenie-next-gen-2018-webrip-720p-d-l1.torrent
U Магнитная ссылка Размер: 3.81 GB Раздают: 37 Качают: 12 Добавлен: 2018-09-19 06:46:26
Следующее поколение / Next Gen (2018) WEBRip 720p | D, L1

Название: Следующее поколение
Оригинальное название: Next Gen
Год выхода: 2018
Жанр: Мультфильм, комедия, приключения, фантастика
Режиссер: Кевин Р. Адамс, Джо Ксандер
В ролях: Джон Красински, Шарлин Йи, Джейсон Судейкис, Майкл Пенья, Дэвид Кросс, Констанс Ву, Киана Ледэ, Анна Акана, Иссак Райан Браун, Реба Бур

О фильме:
Недалекое будущее. Девушке-подростку Су приходится расти в изоляции: папы постоянно нет дома, а мама больше интересуется новыми технологиями, чем собственной дочерью. Однажды она приводит Су на выставку последних достижений науки и техники, где та случайно помогает сбежать из лаборатории роботу последнего поколения. Наконец-то у подростка появляется настоящий друг.

Страна: Китай, Канада
Студия: NetFlix, Baozou Manhua, Tangent Animation
Продолжительность: 01:45:55
Перевод: Дублированный, любительский одноголосый

Файл
Кодек: AVC
Качество: WEBRip 720p
Видео: MPEG-4 AVC, 1280x536, 4000 Kбит/с, 24.000 кадр/с
Аудио #1: Русский ( АС3, 6ch, 384 Кбит/с, 48.0 KHz) Профессиональный (полное дублирование) АРК-ТВ VSI International
Аудио #2: Русский ( АС3, 6ch, 384 Кбит/с, 48.0 KHz) Любительский(одноголосый, закадровый) Solod
Аудио #3: Английский ( АС3, 6ch, 384 Кбит/с, 48.0 KHz)
Субтитры: русские, английские, немецкие, французские, итальянские, китайские


[+] MediaInfo

General
Unique ID                      : 202966254608032995293846146094879731061 (0x98B1E0F56E3A824F9124E83562B7ED75)
Complete name                  : Next.Gen.2018.WEBRip.720p.mkv
Format                         : Matroska
Format version                 : Version 4 / Version 2
File size                      : 3.81 GiB
Duration                       : 1h 45mn
Overall bit rate               : 5 154 Kbps
Encoded date                   : UTC 2018-09-18 11:45:54
Writing application            : mkvmerge v7.1.0 ('Good Love') 64bit built on Jul 27 2014 13:06:55
Writing library                : libebml v1.3.0 + libmatroska v1.4.1

Video
ID                             : 1
Format                         : AVC
Format/Info                    : Advanced Video Codec
Format profile                 : High@L4.1
Format settings, CABAC         : Yes
Format settings, ReFrames      : 12 frames
Codec ID                       : V_MPEG4/ISO/AVC
Duration                       : 1h 45mn
Bit rate                       : 4 000 Kbps
Width                          : 1 280 pixels
Height                         : 536 pixels
Display aspect ratio           : 2.40:1
Frame rate mode                : Constant
Frame rate                     : 24.000 fps
Color space                    : YUV
Chroma subsampling             : 4:2:0
Bit depth                      : 8 bits
Scan type                      : Progressive
Bits/(Pixel*Frame)             : 0.243
Stream size                    : 2.96 GiB (78%)
Writing library                : x264 core 148 r2638 7599210
Encoding settings              : cabac=1 / ref=12 / deblock=1:-2:-2 / analyse=0x3:0x133 / me=umh / subme=10 / psy=1 / psy_rd=1.00:0.20 / mixed_ref=1 / me_range=48 / chroma_me=1 / trellis=2 / 8x8dct=1 / cqm=0 / deadzone=21,11 / fast_pskip=1 / chroma_qp_offset=-3 / threads=6 / lookahead_threads=1 / sliced_threads=0 / nr=0 / decimate=1 / interlaced=0 / bluray_compat=0 / constrained_intra=0 / bframes=10 / b_pyramid=2 / b_adapt=2 / b_bias=0 / direct=3 / weightb=1 / open_gop=0 / weightp=2 / keyint=250 / keyint_min=23 / scenecut=40 / intra_refresh=0 / rc_lookahead=60 / rc=2pass / mbtree=1 / bitrate=4000 / ratetol=1.0 / qcomp=0.60 / qpmin=0 / qpmax=69 / qpstep=4 / cplxblur=20.0 / qblur=0.5 / ip_ratio=1.40 / aq=1:1.00
Language                       : Chinese
Default                        : Yes
Forced                         : No

Audio #1
ID                             : 2
Format                         : AC-3
Format/Info                    : Audio Coding 3
Mode extension                 : CM (complete main)
Format settings, Endianness    : Big
Codec ID                       : A_AC3
Duration                       : 1h 45mn
Bit rate mode                  : Constant
Bit rate                       : 384 Kbps
Channel(s)                     : 6 channels
Channel positions              : Front: L C R, Side: L R, LFE
Sampling rate                  : 48.0 KHz
Frame rate                     : 31.250 fps (1536 spf)
Compression mode               : Lossy
Stream size                    : 291 MiB (7%)
Title                          : DUB
Language                       : Russian
Default                        : Yes
Forced                         : No

Audio #2
ID                             : 3
Format                         : AC-3
Format/Info                    : Audio Coding 3
Mode extension                 : CM (complete main)
Format settings, Endianness    : Big
Codec ID                       : A_AC3
Duration                       : 1h 45mn
Bit rate mode                  : Constant
Bit rate                       : 384 Kbps
Channel(s)                     : 6 channels
Channel positions              : Front: L C R, Side: L R, LFE
Sampling rate                  : 48.0 KHz
Frame rate                     : 31.250 fps (1536 spf)
Compression mode               : Lossy
Stream size                    : 291 MiB (7%)
Title                          : AVO
Language                       : Russian
Default                        : No
Forced                         : No

Audio #3
ID                             : 4
Format                         : AC-3
Format/Info                    : Audio Coding 3
Mode extension                 : CM (complete main)
Format settings, Endianness    : Big
Codec ID                       : A_AC3
Duration                       : 1h 45mn
Bit rate mode                  : Constant
Bit rate                       : 384 Kbps
Channel(s)                     : 6 channels
Channel positions              : Front: L C R, Side: L R, LFE
Sampling rate                  : 48.0 KHz
Frame rate                     : 31.250 fps (1536 spf)
Compression mode               : Lossy
Stream size                    : 291 MiB (7%)
Language                       : English
Default                        : No
Forced                         : No

Text #1
ID                             : 5
Format                         : UTF-8
Codec ID                       : S_TEXT/UTF8
Codec ID/Info                  : UTF-8 Plain Text
Duration                       : 1h 37mn
Bit rate                       : 64 bps
Count of elements              : 1011
Stream size                    : 46.1 KiB (0%)
Language                       : Russian
Default                        : No
Forced                         : No

Text #2
ID                             : 6
Format                         : UTF-8
Codec ID                       : S_TEXT/UTF8
Codec ID/Info                  : UTF-8 Plain Text
Duration                       : 1h 39mn
Bit rate                       : 65 bps
Count of elements              : 1540
Stream size                    : 47.9 KiB (0%)
Title                          : SDH
Language                       : English
Default                        : No
Forced                         : No

Text #3
ID                             : 7
Format                         : UTF-8
Codec ID                       : S_TEXT/UTF8
Codec ID/Info                  : UTF-8 Plain Text
Duration                       : 1h 37mn
Bit rate                       : 40 bps
Count of elements              : 1010
Stream size                    : 28.6 KiB (0%)
Language                       : German
Default                        : No
Forced                         : No

Text #4
ID                             : 8
Format                         : UTF-8
Codec ID                       : S_TEXT/UTF8
Codec ID/Info                  : UTF-8 Plain Text
Duration                       : 1h 37mn
Bit rate                       : 45 bps
Count of elements              : 1014
Stream size                    : 32.6 KiB (0%)
Language                       : French
Default                        : No
Forced                         : No

Text #5
ID                             : 9
Format                         : UTF-8
Codec ID                       : S_TEXT/UTF8
Codec ID/Info                  : UTF-8 Plain Text
Duration                       : 1h 37mn
Bit rate                       : 38 bps
Count of elements              : 953
Stream size                    : 27.4 KiB (0%)
Language                       : Italian
Default                        : No
Forced                         : No

Text #6
ID                             : 10
Format                         : UTF-8
Codec ID                       : S_TEXT/UTF8
Codec ID/Info                  : UTF-8 Plain Text
Duration                       : 1h 37mn
Bit rate                       : 37 bps
Count of elements              : 1012
Stream size                    : 26.7 KiB (0%)
Title                          : Simplified
Language                       : Chinese
Default                        : No
Forced                         : No

Text #7
ID                             : 11
Format                         : UTF-8
Codec ID                       : S_TEXT/UTF8
Codec ID/Info                  : UTF-8 Plain Text
Duration                       : 1h 37mn
Bit rate                       : 44 bps
Count of elements              : 1031
Stream size                    : 31.8 KiB (0%)
Title                          : Traditional
Language                       : Chinese
Default                        : No
Forced                         : No



Скриншоты:
[+] Всего файлов в раздаче - 1:
Next.Gen.2018.WEBRip.720p.mkv3.81 GB

Текущая раздача:
ДатаКомментарии    РазмерПиры
2018-09-19 U Следующее поколение / Next Gen (2018) WEBRip 720p | D, L1 3.81 GB ↑ 37 ↓ 12

Показать еще раздачи по запросу следующее:
2018-09-20 U Следующее поколение / Next Gen (2018) WEBRip от Portablius | D 745.38 MB ↑ 93 ↓ 12
2018-09-19 U Следующее поколение / Next Gen (2018) WEB-DLRip-AVC от ExKinoRay | D 1.89 GB ↑ 56 ↓ 14
2018-09-19 U Следующее поколение / Next Gen (2018) WEB-DLRip от MegaPeer | D 1.46 GB ↑ 101 ↓ 18
2018-09-17 U Следующее поколение / Next Gen (2018) WEB-DLRip от MegaPeer | D 1.46 GB ↑ 177 ↓ 35
2018-09-15 U Следующее поколение / Next Gen (2018) WEB-DLRip 1080p | D 4.47 GB ↑ 911 ↓ 424
2018-09-08 U Следующее поколение / Next Gen (2018) WEBRip 1080p | Sub 4.27 GB ↑ 162 ↓ 65
2017-07-22 U На следующее утро / The Morning After (2015) HDRip | L 1.34 GB ↑ 69 ↓ 38

Отзывы
Зарегистрируйтесь чтобы добавить комментарий.
Обратная связь
Copyleft ©