↑↓Torrent.by
Поиск
Логин: Регистрация
Пароль: Восстановить пароль
Загрузка...

Про футбол, хоккей и... Сборник мультфильмов (1955-1978) DVDRip-AVC

Скачать pro-futbol-hokkey-i-sbornik-multfilmov-1955-1978-dvdrip-avc.torrent
U Магнитная ссылка Размер: 5.13 GB Раздают: 74 Качают: 24 Добавлен: 2018-09-19 14:45:48
Про футбол, хоккей и... Сборник мультфильмов (1955-1978) DVDRip-AVC

Про футбол, хоккей и...


[+] Необыкновенный матч 1955


[img]http://a.radikal.ru/a03/1809/df/30715c1f2e0e.jpg" style="float:right;[/img]

Необыкновенный матч

Год выпуска: 1955
Жанр:  [url=/tag/7/Мультфильм]Мультфильм[/url]
Выпущено: СССР
Продолжительность: 00:21:24
Перевод: Не требуется
Роли озвучивали: Маргарита Корабельникова, Борис Андреев, Юрий Хржановский, Юлия Юльская, В. Иванова

Описание: Первый фильм из спортивной серии о соперничестве деревянных и мягких игрушек.



Кодек: х264
Качество: DVDRip-AVC
Видео: MPEG-4 AVC, 4500 Кбит/с, 718x576@765х576, 25 fps
Аудио: АС3, 6 ch, 448 Кбит/с, АС3, 1 ch, 256 Кбит/с



Инфо файл
x264 [info]: frame I:194   Avg QP:20.09  size: 76185
x264 [info]: frame P:7967  Avg QP:22.01  size: 42401
x264 [info]: frame B:21662 Avg QP:23.73  size: 14801

Общее
Уникальный идентификатор                 : 245423391925285126587321356791903732819 (0xB8A2D371DD8F2317B509AEDD5DA0C453)
Полное имя                               : I:Мульти-пультиФутбол, хоккей и1 Необыкновенный матч 1955_DVDRip-AVC.mkv
Формат                                   : Matroska
Версия формата                           : Version 2
Размер файла                             : 742 Мбайт
Продолжительность                        : 19 м. 52 с.
Общий поток                              : 5219 Кбит/сек
Дата кодирования                         : UTC 2018-09-17 13:53:36
Программа кодирования                    : mkvmerge v5.8.0 ('No Sleep / Pillow') built on Sep  2 2012 15:37:04
Библиотека кодирования                   : libebml v1.2.3 + libmatroska v1.3.0

Видео
Идентификатор                            : 1
Формат                                   : AVC
Формат/Информация                        : Advanced Video Codec
Профиль формата                          : High@L4.1
Настройки формата                        : CABAC / 16 Ref Frames
Параметр CABAC формата                   : Да
Параметр RefFrames формата               : 16 кадров
Идентификатор кодека                     : V_MPEG4/ISO/AVC
Продолжительность                        : 19 м. 52 с.
Битрейт                                  : 4500 Кбит/сек
Ширина                                   : 718 пикселей
Высота                                   : 576 пикселей
Соотношение сторон                       : 4:3
Соотношение сторон в оригинале           : 4:3
Режим частоты кадров                     : Постоянный
Частота кадров                           : 25,000 кадров/сек
Цветовое пространство                    : YUV
Субдискретизация насыщенности            : 4:2:0
Битовая глубина                          : 8 бит
Тип развёртки                            : Прогрессивная
Бит/(Пиксели*Кадры)                      : 0.435
Размер потока                            : 627 Мбайт (85%)
Библиотека кодирования                   : x264 core 152 r2851kMod ba24899
Настройки программы                      : cabac=1 / ref=16 / deblock=1:-2:-2 / analyse=0x3:0x133 / me=umh / subme=11 / psy=1 / fade_compensate=0.00 / psy_rd=0.85:0.00 / mixed_ref=1 / me_range=48 / chroma_me=1 / trellis=2 / 8x8dct=1 / cqm=0 / deadzone=21,11 / fast_pskip=0 / chroma_qp_offset=-2 / threads=12 / lookahead_threads=3 / sliced_threads=0 / nr=0 / decimate=0 / interlaced=0 / bluray_compat=0 / constrained_intra=0 / bframes=10 / b_pyramid=2 / b_adapt=2 / b_bias=0 / direct=3 / weightb=1 / open_gop=0 / weightp=2 / keyint=250 / keyint_min=25 / scenecut=40 / intra_refresh=0 / rc_lookahead=40 / rc=2pass / mbtree=0 / bitrate=4500 / ratetol=1.0 / qcomp=0.60 / qpmin=0 / qpmax=39 / qpstep=4 / cplxblur=20.0 / qblur=0.5 / vbv_maxrate=50000 / vbv_bufsize=62500 / nal_hrd=none / filler=0 / ip_ratio=1.25 / pb_ratio=1.30 / aq=1:0.80
Язык                                     : English
Default                                  : Да
Forced                                   : Нет
Цветовой диапазон                        : Limited
Основные цвета                           : BT.601 PAL
Характеристики трансфера                 : BT.470 System B, BT.470 System G
Коэффициенты матрицы                     : BT.470 System B, BT.470 System G

Аудио #1
Идентификатор                            : 2
Формат                                   : AC-3
Формат/Информация                        : Audio Coding 3
Параметр Endianness формата              : Big
Идентификатор кодека                     : A_AC3
Продолжительность                        : 19 м. 52 с.
Вид битрейта                             : Постоянный
Битрейт                                  : 448 Кбит/сек
Каналы                                   : 6 каналов
Расположение каналов                     : Front: L C R, Side: L R, LFE
Частота                                  : 48,0 КГц
Частота кадров                           : 31,250 кадров/сек (1536 SPF)
Битовая глубина                          : 16 бит
Метод сжатия                             : С потерями
Задержка видео                           : 1 с. 408 мс.
Размер потока                            : 63,7 Мбайт (9%)
Язык                                     : Russian
Default                                  : Да
Forced                                   : Нет

Аудио #2
Идентификатор                            : 3
Формат                                   : AC-3
Формат/Информация                        : Audio Coding 3
Параметр Endianness формата              : Big
Идентификатор кодека                     : A_AC3
Продолжительность                        : 19 м. 52 с.
Вид битрейта                             : Постоянный
Битрейт                                  : 256 Кбит/сек
Каналы                                   : 1 канал
Расположение каналов                     : Front: C
Частота                                  : 48,0 КГц
Частота кадров                           : 31,250 кадров/сек (1536 SPF)
Битовая глубина                          : 16 бит
Метод сжатия                             : С потерями
Задержка видео                           : 1 с. 410 мс.
Размер потока                            : 36,4 Мбайт (5%)
Язык                                     : Russian
Default                                  : Нет
Forced                                   : Нет




[+] Старые знакомые 1956
 
[img]http://b.radikal.ru/b04/1809/7d/609739f4fbc7.jpg" style="float:right;[/img]

Старые знакомые

Год выпуска: 1956
Жанр:  [url=/tag/7/Мультфильм]Мультфильм[/url]
Выпущено: СССР
Продолжительность: 00:19:52
Перевод: Не требуется
Режиссер: Мстислав Пащенко, Борис Дежкин
Роли озвучивали: Юрий Хржановский, Юлия Юльская, Борис Андреев, В. Иванова

Описание: Второй фильм спортивной серии о деревянных и мягких игрушках



Кодек: х264
Качество: DVDRip-AVC
Видео: MPEG-4 AVC, 4950 Кбит/с, 718x576@765х576, 25 fps
Аудио: АС3, 6 ch, 448 Кбит/с, АС3, 1 ch, 256 Кбит/с



Инфо файл
x264 [info]: frame I:209   Avg QP:20.06  size: 75873
x264 [info]: frame P:7713  Avg QP:21.88  size: 45178
x264 [info]: frame B:22576 Avg QP:23.84  size: 17395

Общее
Уникальный идентификатор                 : 224757448681086611698405734596262806742 (0xA916B5C6BF64E7D1B85910EB2FDCC4D6)
Полное имя                               : I:Мульти-пультиФутбол, хоккей и2 Старые знакомые 1956_DVDRip-AVC.mkv
Формат                                   : Matroska
Версия формата                           : Version 2
Размер файла                             : 824 Мбайт
Продолжительность                        : 20 м. 19 с.
Общий поток                              : 5667 Кбит/сек
Дата кодирования                         : UTC 2018-09-17 16:41:00
Программа кодирования                    : mkvmerge v5.8.0 ('No Sleep / Pillow') built on Sep  2 2012 15:37:04
Библиотека кодирования                   : libebml v1.2.3 + libmatroska v1.3.0

Видео
Идентификатор                            : 1
Формат                                   : AVC
Формат/Информация                        : Advanced Video Codec
Профиль формата                          : High@L4.1
Настройки формата                        : CABAC / 16 Ref Frames
Параметр CABAC формата                   : Да
Параметр RefFrames формата               : 16 кадров
Идентификатор кодека                     : V_MPEG4/ISO/AVC
Продолжительность                        : 20 м. 19 с.
Битрейт                                  : 4950 Кбит/сек
Ширина                                   : 718 пикселей
Высота                                   : 576 пикселей
Соотношение сторон                       : 4:3
Соотношение сторон в оригинале           : 4:3
Режим частоты кадров                     : Постоянный
Частота кадров                           : 25,000 кадров/сек
Цветовое пространство                    : YUV
Субдискретизация насыщенности            : 4:2:0
Битовая глубина                          : 8 бит
Тип развёртки                            : Прогрессивная
Бит/(Пиксели*Кадры)                      : 0.479
Размер потока                            : 705 Мбайт (86%)
Библиотека кодирования                   : x264 core 152 r2851kMod ba24899
Настройки программы                      : cabac=1 / ref=16 / deblock=1:-2:-2 / analyse=0x3:0x133 / me=umh / subme=11 / psy=1 / fade_compensate=0.00 / psy_rd=0.85:0.00 / mixed_ref=1 / me_range=48 / chroma_me=1 / trellis=2 / 8x8dct=1 / cqm=0 / deadzone=21,11 / fast_pskip=0 / chroma_qp_offset=-2 / threads=12 / lookahead_threads=2 / sliced_threads=0 / nr=0 / decimate=0 / interlaced=0 / bluray_compat=0 / constrained_intra=0 / bframes=8 / b_pyramid=2 / b_adapt=2 / b_bias=0 / direct=3 / weightb=1 / open_gop=0 / weightp=2 / keyint=250 / keyint_min=25 / scenecut=40 / intra_refresh=0 / rc_lookahead=40 / rc=2pass / mbtree=0 / bitrate=4950 / ratetol=1.0 / qcomp=0.60 / qpmin=0 / qpmax=39 / qpstep=4 / cplxblur=20.0 / qblur=0.5 / vbv_maxrate=50000 / vbv_bufsize=62500 / nal_hrd=none / filler=0 / ip_ratio=1.25 / pb_ratio=1.30 / aq=1:0.80
Язык                                     : English
Default                                  : Да
Forced                                   : Нет
Цветовой диапазон                        : Limited
Основные цвета                           : BT.601 PAL
Характеристики трансфера                 : BT.470 System B, BT.470 System G
Коэффициенты матрицы                     : BT.470 System B, BT.470 System G

Аудио #1
Идентификатор                            : 2
Формат                                   : AC-3
Формат/Информация                        : Audio Coding 3
Параметр Endianness формата              : Big
Идентификатор кодека                     : A_AC3
Продолжительность                        : 20 м. 19 с.
Вид битрейта                             : Постоянный
Битрейт                                  : 448 Кбит/сек
Каналы                                   : 6 каналов
Расположение каналов                     : Front: L C R, Side: L R, LFE
Частота                                  : 48,0 КГц
Частота кадров                           : 31,250 кадров/сек (1536 SPF)
Битовая глубина                          : 16 бит
Метод сжатия                             : С потерями
Задержка видео                           : 1 с. 999 мс.
Размер потока                            : 65,2 Мбайт (8%)
Язык                                     : Russian
Default                                  : Да
Forced                                   : Нет

Аудио #2
Идентификатор                            : 3
Формат                                   : AC-3
Формат/Информация                        : Audio Coding 3
Параметр Endianness формата              : Big
Идентификатор кодека                     : A_AC3
Продолжительность                        : 20 м. 19 с.
Вид битрейта                             : Постоянный
Битрейт                                  : 256 Кбит/сек
Каналы                                   : 1 канал
Расположение каналов                     : Front: C
Частота                                  : 48,0 КГц
Частота кадров                           : 31,250 кадров/сек (1536 SPF)
Битовая глубина                          : 16 бит
Метод сжатия                             : С потерями
Задержка видео                           : 2 с. 1 мс.
Размер потока                            : 37,2 Мбайт (5%)
Язык                                     : Russian
Default                                  : Нет
Forced                                   : Нет




[+] Шайбу! Шайбу! 1964

[img]http://d.radikal.ru/d21/1809/ac/ffced70d4b04.jpg" style="float:right;[/img]

Шайбу! Шайбу!

Год выпуска: 1964
Жанр:  [url=/tag/7/Мультфильм]Мультфильм[/url]
Выпущено: СССР
Продолжительность: 00:20:57
Перевод: Не требуется
Режиссер: Борис Дежкин

Описание: Хоккейный матч между зазанавшимися "мастерами" и дружной командой новичков завершается, конечно, победой скромных и самоотверженных маленьких хоккеистов.



Кодек: х264
Качество: DVDRip-AVC
Видео: MPEG-4 AVC, 6000 Кбит/с, 718x576@765х576, 25 fps
Аудио: АС3, 6 ch, 448 Кбит/с, АС3, 1 ch, 256 Кбит/с



Инфо файл
x264 [info]: frame I:209   Avg QP:20.06  size: 75873
x264 [info]: frame P:7713  Avg QP:21.88  size: 45178
x264 [info]: frame B:22576 Avg QP:23.84  size: 17395

Общее
Уникальный идентификатор                 : 245423391925285126587321356791903732819 (0xB8A2D371DD8F2317B509AEDD5DA0C453)
Полное имя                               : I:Мульти-пультиФутбол, хоккей и1 Необыкновенный матч 1955_DVDRip-AVC.mkv
Формат                                   : Matroska
Версия формата                           : Version 2
Размер файла                             : 742 Мбайт
Продолжительность                        : 19 м. 52 с.
Общий поток                              : 5219 Кбит/сек
Дата кодирования                         : UTC 2018-09-17 13:53:36
Программа кодирования                    : mkvmerge v5.8.0 ('No Sleep / Pillow') built on Sep  2 2012 15:37:04
Библиотека кодирования                   : libebml v1.2.3 + libmatroska v1.3.0

Видео
Идентификатор                            : 1
Формат                                   : AVC
Формат/Информация                        : Advanced Video Codec
Профиль формата                          : High@L4.1
Настройки формата                        : CABAC / 16 Ref Frames
Параметр CABAC формата                   : Да
Параметр RefFrames формата               : 16 кадров
Идентификатор кодека                     : V_MPEG4/ISO/AVC
Продолжительность                        : 19 м. 52 с.
Битрейт                                  : 4500 Кбит/сек
Ширина                                   : 718 пикселей
Высота                                   : 576 пикселей
Соотношение сторон                       : 4:3
Соотношение сторон в оригинале           : 4:3
Режим частоты кадров                     : Постоянный
Частота кадров                           : 25,000 кадров/сек
Цветовое пространство                    : YUV
Субдискретизация насыщенности            : 4:2:0
Битовая глубина                          : 8 бит
Тип развёртки                            : Прогрессивная
Бит/(Пиксели*Кадры)                      : 0.435
Размер потока                            : 627 Мбайт (85%)
Библиотека кодирования                   : x264 core 152 r2851kMod ba24899
Настройки программы                      : cabac=1 / ref=16 / deblock=1:-2:-2 / analyse=0x3:0x133 / me=umh / subme=11 / psy=1 / fade_compensate=0.00 / psy_rd=0.85:0.00 / mixed_ref=1 / me_range=48 / chroma_me=1 / trellis=2 / 8x8dct=1 / cqm=0 / deadzone=21,11 / fast_pskip=0 / chroma_qp_offset=-2 / threads=12 / lookahead_threads=3 / sliced_threads=0 / nr=0 / decimate=0 / interlaced=0 / bluray_compat=0 / constrained_intra=0 / bframes=10 / b_pyramid=2 / b_adapt=2 / b_bias=0 / direct=3 / weightb=1 / open_gop=0 / weightp=2 / keyint=250 / keyint_min=25 / scenecut=40 / intra_refresh=0 / rc_lookahead=40 / rc=2pass / mbtree=0 / bitrate=4500 / ratetol=1.0 / qcomp=0.60 / qpmin=0 / qpmax=39 / qpstep=4 / cplxblur=20.0 / qblur=0.5 / vbv_maxrate=50000 / vbv_bufsize=62500 / nal_hrd=none / filler=0 / ip_ratio=1.25 / pb_ratio=1.30 / aq=1:0.80
Язык                                     : English
Default                                  : Да
Forced                                   : Нет
Цветовой диапазон                        : Limited
Основные цвета                           : BT.601 PAL
Характеристики трансфера                 : BT.470 System B, BT.470 System G
Коэффициенты матрицы                     : BT.470 System B, BT.470 System G

Аудио #1
Идентификатор                            : 2
Формат                                   : AC-3
Формат/Информация                        : Audio Coding 3
Параметр Endianness формата              : Big
Идентификатор кодека                     : A_AC3
Продолжительность                        : 19 м. 52 с.
Вид битрейта                             : Постоянный
Битрейт                                  : 448 Кбит/сек
Каналы                                   : 6 каналов
Расположение каналов                     : Front: L C R, Side: L R, LFE
Частота                                  : 48,0 КГц
Частота кадров                           : 31,250 кадров/сек (1536 SPF)
Битовая глубина                          : 16 бит
Метод сжатия                             : С потерями
Задержка видео                           : 1 с. 408 мс.
Размер потока                            : 63,7 Мбайт (9%)
Язык                                     : Russian
Default                                  : Да
Forced                                   : Нет

Аудио #2
Идентификатор                            : 3
Формат                                   : AC-3
Формат/Информация                        : Audio Coding 3
Параметр Endianness формата              : Big
Идентификатор кодека                     : A_AC3
Продолжительность                        : 19 м. 52 с.
Вид битрейта                             : Постоянный
Битрейт                                  : 256 Кбит/сек
Каналы                                   : 1 канал
Расположение каналов                     : Front: C
Частота                                  : 48,0 КГц
Частота кадров                           : 31,250 кадров/сек (1536 SPF)
Битовая глубина                          : 16 бит
Метод сжатия                             : С потерями
Задержка видео                           : 1 с. 410 мс.
Размер потока                            : 36,4 Мбайт (5%)
Язык                                     : Russian
Default                                  : Нет
Forced                                   : Нет




[+] Матч реванш 1968

[img]http://d.radikal.ru/d16/1809/be/e4dfe86aae2f.jpg" style="float:right;[/img]

Матч реванш

Год выпуска: 1968
Жанр:  [url=/tag/7/Мультфильм]Мультфильм[/url]
Выпущено: СССР
Продолжительность: 00:20:42
Перевод: Не требуется
Режиссер: Борис Дежкин

Описание: Хоккейный матч между командами "Метеор" и "Ракета", уже встречавшимися в фильме "Шайбу, шайбу!".



Кодек: х264
Качество: DVDRip-AVC
Видео: MPEG-4 AVC, 5450 Кбит/с, 718x576@765х576, 25 fps
Аудио: АС3, 6 ch, 448 Кбит/с, АС3, 1 ch, 256 Кбит/с



Инфо файл
x264 [info]: frame I:195   Avg QP:19.59  size: 78828
x264 [info]: frame P:7885  Avg QP:21.97  size: 48560
x264 [info]: frame B:21365 Avg QP:23.76  size: 18974

Общее
Уникальный идентификатор                 : 236681396647502792932868228108434724547 (0xB20F2DCCEEE37893AA831DB08852D6C3)
Полное имя                               : I:Мульти-пультиФутбол, хоккей и4 Матч реванш 1968_DVDRip-AVC .mkv
Формат                                   : Matroska
Версия формата                           : Version 2
Размер файла                             : 865 Мбайт
Продолжительность                        : 19 м. 37 с.
Общий поток                              : 6163 Кбит/сек
Дата кодирования                         : UTC 2018-09-17 19:18:20
Программа кодирования                    : mkvmerge v5.8.0 ('No Sleep / Pillow') built on Sep  2 2012 15:37:04
Библиотека кодирования                   : libebml v1.2.3 + libmatroska v1.3.0

Видео
Идентификатор                            : 1
Формат                                   : AVC
Формат/Информация                        : Advanced Video Codec
Профиль формата                          : High@L4.1
Настройки формата                        : CABAC / 16 Ref Frames
Параметр CABAC формата                   : Да
Параметр RefFrames формата               : 16 кадров
Идентификатор кодека                     : V_MPEG4/ISO/AVC
Продолжительность                        : 19 м. 37 с.
Битрейт                                  : 5450 Кбит/сек
Ширина                                   : 718 пикселей
Высота                                   : 576 пикселей
Соотношение сторон                       : 4:3
Соотношение сторон в оригинале           : 4:3
Режим частоты кадров                     : Постоянный
Частота кадров                           : 25,000 кадров/сек
Цветовое пространство                    : YUV
Субдискретизация насыщенности            : 4:2:0
Битовая глубина                          : 8 бит
Тип развёртки                            : Прогрессивная
Бит/(Пиксели*Кадры)                      : 0.527
Размер потока                            : 749 Мбайт (87%)
Библиотека кодирования                   : x264 core 152 r2851kMod ba24899
Настройки программы                      : cabac=1 / ref=16 / deblock=1:-2:-2 / analyse=0x3:0x133 / me=umh / subme=11 / psy=1 / fade_compensate=0.00 / psy_rd=0.85:0.00 / mixed_ref=1 / me_range=48 / chroma_me=1 / trellis=2 / 8x8dct=1 / cqm=0 / deadzone=21,11 / fast_pskip=0 / chroma_qp_offset=-2 / threads=12 / lookahead_threads=2 / sliced_threads=0 / nr=0 / decimate=0 / interlaced=0 / bluray_compat=0 / constrained_intra=0 / bframes=8 / b_pyramid=2 / b_adapt=2 / b_bias=0 / direct=3 / weightb=1 / open_gop=0 / weightp=2 / keyint=250 / keyint_min=25 / scenecut=40 / intra_refresh=0 / rc_lookahead=40 / rc=2pass / mbtree=0 / bitrate=5450 / ratetol=1.0 / qcomp=0.60 / qpmin=0 / qpmax=39 / qpstep=4 / cplxblur=20.0 / qblur=0.5 / vbv_maxrate=50000 / vbv_bufsize=62500 / nal_hrd=none / filler=0 / ip_ratio=1.25 / pb_ratio=1.30 / aq=1:0.80
Язык                                     : English
Default                                  : Да
Forced                                   : Нет
Цветовой диапазон                        : Limited
Основные цвета                           : BT.601 PAL
Характеристики трансфера                 : BT.470 System B, BT.470 System G
Коэффициенты матрицы                     : BT.470 System B, BT.470 System G

Аудио #1
Идентификатор                            : 2
Формат                                   : AC-3
Формат/Информация                        : Audio Coding 3
Параметр Endianness формата              : Big
Идентификатор кодека                     : A_AC3
Продолжительность                        : 19 м. 37 с.
Вид битрейта                             : Постоянный
Битрейт                                  : 448 Кбит/сек
Каналы                                   : 6 каналов
Расположение каналов                     : Front: L C R, Side: L R, LFE
Частота                                  : 48,0 КГц
Частота кадров                           : 31,250 кадров/сек (1536 SPF)
Битовая глубина                          : 16 бит
Метод сжатия                             : С потерями
Задержка видео                           : 1 с. 605 мс.
Размер потока                            : 62,9 Мбайт (7%)
Язык                                     : Russian
Default                                  : Да
Forced                                   : Нет

Аудио #2
Идентификатор                            : 3
Формат                                   : AC-3
Формат/Информация                        : Audio Coding 3
Параметр Endianness формата              : Big
Идентификатор кодека                     : A_AC3
Продолжительность                        : 19 м. 37 с.
Вид битрейта                             : Постоянный
Битрейт                                  : 256 Кбит/сек
Каналы                                   : 1 канал
Расположение каналов                     : Front: C
Частота                                  : 48,0 КГц
Частота кадров                           : 31,250 кадров/сек (1536 SPF)
Битовая глубина                          : 16 бит
Метод сжатия                             : С потерями
Задержка видео                           : 1 с. 605 мс.
Размер потока                            : 35,9 Мбайт (4%)
Язык                                     : Russian
Default                                  : Нет
Forced                                   : Нет




[+] Метеор на ринге 1970

[img]http://a.radikal.ru/a00/1809/be/6b6f58a84be3.jpg" style="float:right;[/img]

Метеор на ринге

Год выпуска: 1970
Жанр:  [url=/tag/7/Мультфильм]Мультфильм[/url]
Выпущено: СССР
Продолжительность: 00:19:57
Перевод: Не требуется
Режиссер: Борис Дежкин

Описание: Героями фильма являются популярные персонажи фильмов Матч - реванш и Метеор на ринге, выступающие в новом виде спорта- боксе.



Кодек: х264
Качество: DVDRip-AVC
Видео: MPEG-4 AVC, 4450 Кбит/с, 718x576@765х576, 25 fps
Аудио: АС3, 6 ch, 448 Кбит/с, АС3, 1 ch, 256 Кбит/с



Инфо файл
x264 [info]: frame I:186   Avg QP:17.29  size: 86434
x264 [info]: frame P:7344  Avg QP:19.94  size: 44456
x264 [info]: frame B:20880 Avg QP:21.90  size: 13976

Общее
Уникальный идентификатор                 : 204079966099622899055261642608345894622 (0x99885F2CB7973116816524B510EC4EDE)
Полное имя                               : I:Мульти-пультиФутбол, хоккей и5 Метеор на ринге 1970_DVDRip-AVC.mkv
Формат                                   : Matroska
Версия формата                           : Version 2
Размер файла                             : 700 Мбайт
Продолжительность                        : 18 м. 56 с.
Общий поток                              : 5171 Кбит/сек
Дата кодирования                         : UTC 2018-09-17 20:48:30
Программа кодирования                    : mkvmerge v5.8.0 ('No Sleep / Pillow') built on Sep  2 2012 15:37:04
Библиотека кодирования                   : libebml v1.2.3 + libmatroska v1.3.0

Видео
Идентификатор                            : 1
Формат                                   : AVC
Формат/Информация                        : Advanced Video Codec
Профиль формата                          : High@L4.1
Настройки формата                        : CABAC / 16 Ref Frames
Параметр CABAC формата                   : Да
Параметр RefFrames формата               : 16 кадров
Идентификатор кодека                     : V_MPEG4/ISO/AVC
Продолжительность                        : 18 м. 56 с.
Битрейт                                  : 4450 Кбит/сек
Ширина                                   : 718 пикселей
Высота                                   : 576 пикселей
Соотношение сторон                       : 4:3
Соотношение сторон в оригинале           : 4:3
Режим частоты кадров                     : Постоянный
Частота кадров                           : 25,000 кадров/сек
Цветовое пространство                    : YUV
Субдискретизация насыщенности            : 4:2:0
Битовая глубина                          : 8 бит
Тип развёртки                            : Прогрессивная
Бит/(Пиксели*Кадры)                      : 0.430
Размер потока                            : 591 Мбайт (84%)
Библиотека кодирования                   : x264 core 152 r2851kMod ba24899
Настройки программы                      : cabac=1 / ref=16 / deblock=1:-2:-2 / analyse=0x3:0x133 / me=umh / subme=11 / psy=1 / fade_compensate=0.00 / psy_rd=0.85:0.00 / mixed_ref=1 / me_range=48 / chroma_me=1 / trellis=2 / 8x8dct=1 / cqm=0 / deadzone=21,11 / fast_pskip=0 / chroma_qp_offset=-2 / threads=12 / lookahead_threads=3 / sliced_threads=0 / nr=0 / decimate=0 / interlaced=0 / bluray_compat=0 / constrained_intra=0 / bframes=12 / b_pyramid=2 / b_adapt=2 / b_bias=0 / direct=3 / weightb=1 / open_gop=0 / weightp=2 / keyint=250 / keyint_min=25 / scenecut=40 / intra_refresh=0 / rc_lookahead=40 / rc=2pass / mbtree=0 / bitrate=4450 / ratetol=1.0 / qcomp=0.60 / qpmin=0 / qpmax=39 / qpstep=4 / cplxblur=20.0 / qblur=0.5
[+] Всего файлов в раздаче - 7:
3 Шайбу! Шайбу! 1964_DVDRip-AVC.mkv974.04 MB
4 Матч реванш 1968_DVDRip-AVC .mkv865.33 MB
2 Старые знакомые 1956_DVDRip-AVC.mkv824.07 MB
6 Футбольные звезды 1974_DVDRip-AVC.mkv767.02 MB
1 Необыкновенный матч 1955_DVDRip-AVC.mkv742.11 MB
5 Метеор на ринге 1970_DVDRip-AVC.mkv700.46 MB
7 Талант и поклонники 1978_DVDRip-AVC.mkv375.21 MB

Текущая раздача:
ДатаКомментарии    РазмерПиры
2018-09-19 U Про футбол, хоккей и... Сборник мультфильмов (1955-1978) DVDRip-AVC 5.13 GB ↑ 74 ↓ 24

Показать еще раздачи по запросу футбол:
2018-07-18 U Футбол. Чемпионат мира 2018. Финал. Франция - Хорватия + разминка + обзор + Церемония закрытия + Награждение [эфир от 15.07] (2018) WEBRip 3.44 GB ↑ 148 ↓ 8
2018-04-03 U Футбол. Чемпионат Англии 2017-18. 32-й тур. Обзор тура [02.04] (2018) IPTVRip 750.32 MB ↑ 45 ↓ 13
2018-03-31 U Футбол. Товарищеские матчи сборных команд Европы, Азии, Южной Америки. Обзоры [22-27.03] (2018) WEBRip 720p 1.67 GB ↑ 85 ↓ 20
2018-03-20 U Футбол. Чемпионат Англии 2017-18. 31-й тур. Обзор тура [19.03] (2018) IPTVRip 749.72 MB ↑ 99 ↓ 10
2018-02-05 U Футбол. Чемпионат Англии 2017-18. 26-й тур. Ливерпуль - Тоттенхэм Хотспур [04.02] (2018) HDTVRip 1.56 GB ↑ 63 ↓ 19
2018-02-02 U Футбол. Чемпионат Англии 2017-18. 25-й тур. Обзор тура [01.02] (2018) HDTVRip 751.54 MB ↑ 60 ↓ 15
2018-01-30 U Футбол. Чемпионат Испании 2017-18. 21-й тур. Обзор тура [29.01] (2018) HDTVRip 596.35 MB ↑ 60 ↓ 11

Отзывы
Зарегистрируйтесь чтобы добавить комментарий.
Обратная связь
Copyleft ©