↑↓Torrent.by
Поиск
Логин: Регистрация
Пароль: Восстановить пароль
Загрузка...

Черновик (2018) BDRemux 1080p | Лицензия

Скачать chernovik-2018-bdremux-1080p-licenziya.torrent
U Магнитная ссылка Размер: 31.63 GB Раздают: 40 Качают: 29 Добавлен: 2018-09-19 14:46:04
Черновик (2018) BDRemux 1080p | Лицензия

Название: Черновик
Год выхода: 2018
Жанр: Фантастика
Режиссер: Сергей Мокрицкий
В ролях: Никита Волков, Евгений Ткачук, Ольга Боровская, Юлия Пересильд, Северия Янушаускайте, Евгений Цыганов, Елена Яковлева, Ирина Демидкина, Андрей Мерзликин, Андрей Руденский

О фильме:
Молодой москвич Кирилл — талантливый дизайнер компьютерных игр. В один прекрасный день он оказывается напрочь стертым из памяти всех, кого он знал и любил. Кирилл узнает, что выбран для важной и таинственной миссии. Его предназначение — стать таможенником между параллельными мирами, коих во Вселенной десятки. Сможет ли Кирилл разгадать тайну этих таинственных миров и того, кто и зачем ими управляет? И действительно ли наша Земля — всего лишь воображаемый «черновик», параллельный мир, которого в Реальности не существует.

 
Страна: Россия
Студия: «Новые люди»
Продолжительность: 01:55:34
Перевод: Не требуется (русский)

Файл
Кодек: H.264
Качество: BDRemux 1080p | Лицензия BD GER
Видео: AVC/H.264, 1920x1080, ~34,6 Мbps, 24 fps
Звук:
Аудио 1: DTS-HD MA, 6 ch, ~3934 kbps - Русский
Аудио 2: AC3, 6 ch, ~640 kbps - Русский
Субтитры: Немецкие


[+] Mediainfo
Общее
Уникальный идентификатор                 : 62457930063674041583762038267541779367 (0x2EFCF5B3F8E00E787FABA5ECA870F3A7)
Полное имя                               : Черновик.2018.Remux.W.mkv
Формат                                   : Matroska
Версия формата                           : Version 4
Размер файла                             : 31,6 Гбайт
Продолжительность                        : 1 ч. 55 м.
Режим общего битрейта                    : Переменный
Общий поток                              : 39,2 Мбит/сек
Название фильма                          : Черновик.2018.Remux.W.
Дата кодирования                         : UTC 2018-09-17 22:21:29
Программа кодирования                    : mkvmerge v23.0.0 ('The Bride Said No') 64-bit
Библиотека кодирования                   : libebml v1.3.6 + libmatroska v1.4.9

Видео
Идентификатор                            : 1
Формат                                   : AVC
Формат/Информация                        : Advanced Video Codec
Профиль формата                          : High@L4.1
Настройки формата                        : CABAC / 4 Ref Frames
Параметр CABAC формата                   : Да
Параметр RefFrames формата               : 4 кадра
Идентификатор кодека                     : V_MPEG4/ISO/AVC
Продолжительность                        : 1 ч. 55 м.
Вид битрейта                             : Переменный
Битрейт                                  : 34,6 Мбит/сек
Максимальный битрейт                     : 36,0 Мбит/сек
Ширина                                   : 1920 пикселей
Высота                                   : 1080 пикселей
Соотношение сторон                       : 16:9
Режим частоты кадров                     : Постоянный
Частота кадров                           : 24,000 кадра/сек
Цветовое пространство                    : YUV
Субдискретизация насыщенности            : 4:2:0
Битовая глубина                          : 8 бит
Тип развёртки                            : Прогрессивная
Бит/(Пиксели*Кадры)                      : 0.695
Размер потока                            : 27,9 Гбайт (88%)
Язык                                     : Russian
Default                                  : Да
Forced                                   : Нет

Аудио #1
Идентификатор                            : 2
Формат                                   : DTS XLL
Формат/Информация                        : Digital Theater Systems
Коммерческое название                    : DTS-HD Master Audio
Идентификатор кодека                     : A_DTS
Продолжительность                        : 1 ч. 55 м.
Вид битрейта                             : Переменный
Битрейт                                  : 3934 Кбит/сек
Каналы                                   : 6 каналов
Channel layout                           : C L R Ls Rs LFE
Частота                                  : 48,0 КГц
Частота кадров                           : 93,750 кадра/сек (512 SPF)
Битовая глубина                          : 24 бит
Метод сжатия                             : Без потерь
Размер потока                            : 3,18 Гбайт (10%)
Язык                                     : Russian
Default                                  : Да
Forced                                   : Нет

Аудио #2
Идентификатор                            : 3
Формат                                   : AC-3
Формат/Информация                        : Audio Coding 3
Коммерческое название                    : Dolby Digital
Идентификатор кодека                     : A_AC3
Продолжительность                        : 1 ч. 55 м.
Вид битрейта                             : Постоянный
Битрейт                                  : 640 Кбит/сек
Каналы                                   : 6 каналов
Channel layout                           : L R C LFE Ls Rs
Частота                                  : 48,0 КГц
Частота кадров                           : 31,250 кадров/сек (1536 SPF)
Битовая глубина                          : 16 бит
Метод сжатия                             : С потерями
Размер потока                            : 529 Мбайт (2%)
Язык                                     : Russian
ServiceKind                              : Complete Main
Default                                  : Нет
Forced                                   : Нет

Текст #1
Идентификатор                            : 4
Формат                                   : PGS
Режим смешивания                         : zlib
Идентификатор кодека                     : S_HDMV/PGS
Идентификатор кодека/Информация          : Picture based subtitle format used on BDs/HD-DVDs
Продолжительность                        : 1 ч. 6 м.
Битрейт                                  : 321 бит/сек
ElementCount                             : 24
Размер потока                            : 157 Кбайт (0%)
Заголовок                                : Forced
Язык                                     : German
Default                                  : Нет
Forced                                   : Нет

Текст #2
Идентификатор                            : 5
Формат                                   : PGS
Режим смешивания                         : zlib
Идентификатор кодека                     : S_HDMV/PGS
Идентификатор кодека/Информация          : Picture based subtitle format used on BDs/HD-DVDs
Продолжительность                        : 1 ч. 49 м.
Битрейт                                  : 29,9 Кбит/сек
ElementCount                             : 2464
Размер потока                            : 23,5 Мбайт (0%)
Заголовок                                : Full
Язык                                     : German
Default                                  : Нет
Forced                                   : Нет

Меню
00:00:00.000                             : ru:Chapter 1
00:02:40.291                             : ru:Chapter 2
00:05:48.375                             : ru:Chapter 3
00:10:01.333                             : ru:Chapter 4
00:13:08.041                             : ru:Chapter 5
00:19:07.000                             : ru:Chapter 6
00:22:56.333                             : ru:Chapter 7
00:29:18.625                             : ru:Chapter 8
00:36:24.583                             : ru:Chapter 9
00:41:59.583                             : ru:Chapter 10
00:46:21.208                             : ru:Chapter 11
00:52:56.291                             : ru:Chapter 12
01:00:12.416                             : ru:Chapter 13
01:03:48.333                             : ru:Chapter 14
01:12:32.458                             : ru:Chapter 15
01:18:14.583                             : ru:Chapter 16
01:21:37.291                             : ru:Chapter 17
01:25:17.125                             : ru:Chapter 18
01:28:57.083                             : ru:Chapter 19
01:32:48.208                             : ru:Chapter 20
01:37:04.000                             : ru:Chapter 21
01:44:50.333                             : ru:Chapter 22
01:47:57.250                             : ru:Chapter 23
01:50:27.958                             : ru:Chapter 24
01:55:33.958                             : ru:Chapter 25  



Скриншоты:
[+] Всего файлов в раздаче - 1:
Черновик.2018.Remux.W.mkv31.63 GB

Текущая раздача:
ДатаКомментарии    РазмерПиры
2018-09-19 U Черновик (2018) BDRemux 1080p | Лицензия 31.63 GB ↑ 40 ↓ 29

Показать еще раздачи по запросу черновик:
2018-09-28 U Черновик (2018) BDRip-AVC от HELLYWOOD | GER Transfer | Лицензия 1.46 GB ↑ 71 ↓ 19
2018-09-22 U Черновик (2018) HDRip от Scarabey | Лицензия 1.45 GB ↑ 128 ↓ 19
2018-09-20 U Черновик (2018) BDRip-AVC от HELLYWOOD | GER Transfer | Лицензия 2.18 GB ↑ 94 ↓ 41
2018-09-19 U Черновик (2018) BDRip 720p | GER Transfer | Лицензия 6.36 GB ↑ 101 ↓ 38
2018-09-18 U Черновик (2018) BDRip-AVC от Files-x | Лицензия 1.46 GB ↑ 318 ↓ 95
2018-09-18 U Черновик (2018) BDRip 1080p от OlLanDGroup | GER Transfer | Лицензия 9.97 GB ↑ 99 ↓ 75
2018-09-18 U Черновик (2018) BDRip от MegaPeer | GER Transfer | Лицензия 1.46 GB ↑ 122 ↓ 48

Отзывы
Зарегистрируйтесь чтобы добавить комментарий.
Обратная связь
Copyleft ©