↑↓Torrent.by
Поиск
Логин: Регистрация
Пароль: Восстановить пароль

Убийца 2. Против всех / Sicario: Day of the Soldado (2018) WEB-DL 1080p от TeamHD | A

Скачать ubiyca-2-protiv-vseh-sicario-day-of-the-soldado-2018-web-dl-1080p-ot-teamhd-a.torrent
U Магнитная ссылка Размер: 5.14 GB Раздают: 206 Качают: 112 Добавлен: 2018-09-20 11:33:46
Убийца 2. Против всех / Sicario: Day of the Soldado (2018) WEB-DL 1080p от TeamHD | A

Название: Убийца 2. Против всех
Оригинальное название: Sicario: Day of the Soldado
Год выхода: 2018
Жанр: Боевик, триллер, драма, криминал
Режиссер: Стефано Соллима
В ролях: Бенисио Дель Торо, Джош Бролин, Изабела Монер, Джеффри Донован, Кэтрин Кинер, Мануэль Рульфо, Мэттью Модайн, Шей Уигэм, Элиас Гарза, Ховард Фергюсон мл.

О фильме: Обстановка на американо-мексиканской границе накаляется, когда наркокартели начинают переправлять в США террористов. Чтобы дать им отпор федеральный агент Мэтт Грейвер вынужден вновь объединиться с не самым надежным напарником — Алехандро.

Страна: США, Италия
Студия: Black Label Media,Rai Cinema,Thunder Road Pictures
Продолжительность: 02:02:23
Перевод: Авторский | Дмитрий Есарев

Качество: WEB-DL 1080p | AMZN Version
Видео: MPEG-4 AVC, 1920x800, 4926 Kbit/s, 23.976 fps
Звук:
Аудио #01: 48 kHz, AC3, 5.1, 448 Kbps | Авторский | RUS |
Аудио #02: 48 kHz, E-AC3, 5.1, 640 Kbps | Оригинал |  ENG |
Субтитры: Английские

Релиз: Автор релиза:


[+] MI
General
Unique ID                   : 135328401807600321198312772019482608753 (0x65CF4D58D5391761CAC223AD2AE94471)
Complete name               : D:Video111Sicario.Day.of.the.Soldado.2018.1080p.WEB-DL.Rus.Eng.TeamHD-SiGMA.mkv
Format                      : Matroska
Format version              : Version 4 / Version 2
File size                   : 5.14 GiB
Duration                    : 2 h 2 min
Overall bit rate            : 6 016 kb/s
Movie name                  : Sicario Day of the Soldado (2018) TeamHD
Encoded date                : UTC 2018-09-20 02:44:05
Writing application         : mkvmerge v23.0.0 ('The Bride Said No') 64-bit
Writing library             : libebml v1.3.6 + libmatroska v1.4.9

Video
ID                          : 1
Format                      : AVC
Format/Info                 : Advanced Video Codec
Format profile              : High@L4
Format settings             : CABAC / 4 Ref Frames
Format settings, CABAC      : Yes
Format settings, ReFrames   : 4 frames
Codec ID                    : V_MPEG4/ISO/AVC
Duration                    : 2 h 2 min
Bit rate                    : 4 926 kb/s
Width                       : 1 920 pixels
Height                      : 800 pixels
Display aspect ratio        : 2.40:1
Frame rate mode             : Constant
Frame rate                  : 23.976 (24000/1001) FPS
Color space                 : YUV
Chroma subsampling          : 4:2:0
Bit depth                   : 8 bits
Scan type                   : Progressive
Bits/(Pixel*Frame)          : 0.134
Stream size                 : 4.21 GiB (82%)
Language                    : English
Default                     : Yes
Forced                      : No
Color range                 : Limited
Color primaries             : BT.709
Transfer characteristics    : BT.709
Matrix coefficients         : BT.709

Audio #1
ID                          : 2
Format                      : AC-3
Format/Info                 : Audio Coding 3
Commercial name             : Dolby Digital
Codec ID                    : A_AC3
Duration                    : 2 h 2 min
Bit rate mode               : Constant
Bit rate                    : 448 kb/s
Channel(s)                  : 6 channels
Channel layout              : L R C LFE Ls Rs
Sampling rate               : 48.0 kHz
Frame rate                  : 31.250 FPS (1536 SPF)
Bit depth                   : 16 bits
Compression mode            : Lossy
Stream size                 : 392 MiB (7%)
Title                       : AVO [Есарев]
Language                    : Russian
Service kind                : Complete Main
Default                     : Yes
Forced                      : No

Audio #2
ID                          : 3
Format                      : E-AC-3
Format/Info                 : Enhanced AC-3
Commercial name             : Dolby Digital Plus
Codec ID                    : A_EAC3
Duration                    : 2 h 2 min
Bit rate mode               : Constant
Bit rate                    : 640 kb/s
Channel(s)                  : 6 channels
Channel layout              : L R C LFE Ls Rs
Sampling rate               : 48.0 kHz
Frame rate                  : 31.250 FPS (1536 SPF)
Compression mode            : Lossy
Stream size                 : 560 MiB (11%)
Language                    : English
Service kind                : Complete Main
Default                     : No
Forced                      : No

Text
ID                          : 4
Format                      : UTF-8
Codec ID                    : S_TEXT/UTF8
Codec ID/Info               : UTF-8 Plain Text
Duration                    : 2 h 1 min
Bit rate                    : 32 b/s
Count of elements           : 1176
Stream size                 : 29.1 KiB (0%)
Title                       : English (SDH)
Language                    : English
Default                     : No
Forced                      : No



Скриншоты:
[+] Всего файлов в раздаче - 1:
Sicario.Day.of.the.Soldado.2018.1080p.WEB-DL.Rus.Eng.TeamHD-SiGMA.mkv5.14 GB

Похожие раздачи по запросу - убийца:
2019-10-09 U Марлина, убийца в четырёх актах / Marlina si pembunuh dalam empat babak (2017) HDRip | HDRezka Studio 1.46 GB ↑ 132 ↓ 17
2018-11-12 U Убийца 2. Против всех / Sicario: Day of the Soldado (2018) BDRip 1080p от qqss44 & MegaPeer | iTunes 7.53 GB ↑ 220 ↓ 31
2016-09-14 U Я не серийный убийца / I Am Not a Serial Killer (2016) WEB-DL 1080p | L 4.40 GB ↑ 676 ↓ 79

Отзывы
Зарегистрируйтесь чтобы добавить комментарий.
Обратная связь
Copyleft ©