↑↓Torrent.by
Поиск
Логин: Регистрация
Пароль: Восстановить пароль
Загрузка...

Красавица для чудовища / Mary Shelley (2017) BDRip 1080p | iTunes

Скачать krasavica-dlya-chudovischa-mary-shelley-2017-bdrip-1080p-itunes.torrent
U Магнитная ссылка Размер: 8.17 GB Раздают: 95 Качают: 36 Добавлен: 2018-09-20 11:34:26
Красавица для чудовища / Mary Shelley (2017) BDRip 1080p | iTunes

Название: Красавица для чудовища
Оригинальное название: Mary Shelley
Год выхода: 2017
Жанр: Драма, мелодрама, биография
Режиссер: Хайфа Аль-Мансур
В ролях: Элль Фэннинг, Бен Харди, Мэйси Уильямс, Бел Паули, Дуглас Бут, Джоанн Фроггатт, Том Старридж, Стивен Диллэйн, Хью О’Конор, Сиара Чартерис

О фильме:
Что сподвигло нежную юную девушку к написанию «Франкенштейна…» - мрачного, энергетически необыкновенно сильного произведения, давшего начало жанру научной фантастики в мировой литературе? Биографическая картина повествует о наполненной драматическими событиями жизни знаменитой писательницы Мэри Шелли и ее страстной любви к одному из величайших английских поэтов.

Страна: Великобритания, Люксембург, США
Студия: BFI Film Fund, Gidden Media, HanWay Films
Продолжительность: 02:00:37
Перевод: Профессиональный многоголосый | iTunes

Файл
Кодек: x.264
Качество: BDRip 1080p | Mary.Shelley.2017.1080p.BluRay.X264-AMIABLE
Видео: MPEG-4 AVC, 1920x808, 8872 Kбит/с, 23.976fps кадр/с
Аудио #1: Русский ( АС3, 6ch, 384 Кбит/с, 48.0 KHz) Профессиональный (многоголосый, закадровый) iTunes
Аудио #2: Английский ( АС3, 6ch, 448 Кбит/с, 48.0 KHz)
Субтитры: английские


[+] MediaInfo
Источник: Mary.Shelley.2017.1080p.BluRay.X264-AMIABLE
General
Unique ID                      : 202521373653089709844194051536221421234 (0x985C32A2586358A4B062D0678468BEB2)
Complete name                  : Mary.Shelley.2017.BDRip.1080p.mkv
Format                         : Matroska
Format version                 : Version 4 / Version 2
File size                      : 8.17 GiB
Duration                       : 2h 0mn
Overall bit rate               : 9 697 Kbps
Encoded date                   : UTC 2018-09-19 13:12:12
Writing application            : mkvmerge v7.1.0 ('Good Love') 64bit built on Jul 27 2014 13:06:55
Writing library                : libebml v1.3.0 + libmatroska v1.4.1

Video
ID                             : 1
Format                         : AVC
Format/Info                    : Advanced Video Codec
Format profile                 : High@L4.1
Format settings, CABAC         : Yes
Format settings, ReFrames      : 5 frames
Codec ID                       : V_MPEG4/ISO/AVC
Duration                       : 2h 0mn
Bit rate                       : 8 872 Kbps
Width                          : 1 920 pixels
Height                         : 808 pixels
Display aspect ratio           : 2.40:1
Frame rate mode                : Constant
Frame rate                     : 23.976 (24000/1001) fps
Color space                    : YUV
Chroma subsampling             : 4:2:0
Bit depth                      : 8 bits
Scan type                      : Progressive
Bits/(Pixel*Frame)             : 0.239
Stream size                    : 7.47 GiB (91%)
Writing library                : x264 core 157 r2932 303c484
Encoding settings              : cabac=1 / ref=5 / deblock=1:-3:-3 / analyse=0x3:0x113 / me=umh / subme=8 / psy=1 / psy_rd=1.00:0.00 / mixed_ref=1 / me_range=32 / chroma_me=1 / trellis=2 / 8x8dct=1 / cqm=0 / deadzone=21,11 / fast_pskip=1 / chroma_qp_offset=-2 / threads=25 / lookahead_threads=4 / sliced_threads=0 / nr=0 / decimate=1 / interlaced=0 / bluray_compat=0 / constrained_intra=0 / bframes=3 / b_pyramid=2 / b_adapt=2 / b_bias=0 / direct=3 / weightb=1 / open_gop=0 / weightp=2 / keyint=240 / keyint_min=24 / scenecut=40 / intra_refresh=0 / rc_lookahead=50 / rc=2pass / mbtree=1 / bitrate=8872 / ratetol=1.0 / qcomp=0.60 / qpmin=0 / qpmax=69 / qpstep=4 / cplxblur=20.0 / qblur=0.5 / ip_ratio=1.40 / aq=3:0.80
Language                       : English
Default                        : Yes
Forced                         : No

Audio #1
ID                             : 2
Format                         : AC-3
Format/Info                    : Audio Coding 3
Mode extension                 : CM (complete main)
Format settings, Endianness    : Big
Codec ID                       : A_AC3
Duration                       : 2h 0mn
Bit rate mode                  : Constant
Bit rate                       : 384 Kbps
Channel(s)                     : 6 channels
Channel positions              : Front: L C R, Side: L R, LFE
Sampling rate                  : 48.0 KHz
Frame rate                     : 31.250 fps (1536 spf)
Compression mode               : Lossy
Stream size                    : 331 MiB (4%)
Title                          : iTunes
Language                       : Russian
Default                        : Yes
Forced                         : No

Audio #2
ID                             : 3
Format                         : AC-3
Format/Info                    : Audio Coding 3
Mode extension                 : CM (complete main)
Format settings, Endianness    : Big
Codec ID                       : A_AC3
Duration                       : 2h 0mn
Bit rate mode                  : Constant
Bit rate                       : 448 Kbps
Channel(s)                     : 6 channels
Channel positions              : Front: L C R, Side: L R, LFE
Sampling rate                  : 48.0 KHz
Frame rate                     : 31.250 fps (1536 spf)
Compression mode               : Lossy
Stream size                    : 387 MiB (5%)
Language                       : English
Default                        : No
Forced                         : No

Text #1
ID                             : 4
Format                         : UTF-8
Codec ID                       : S_TEXT/UTF8
Codec ID/Info                  : UTF-8 Plain Text
Duration                       : 1h 51mn
Bit rate                       : 53 bps
Count of elements              : 1341
Stream size                    : 43.9 KiB (0%)
Language                       : English
Default                        : No
Forced                         : No

Text #2
ID                             : 5
Format                         : UTF-8
Codec ID                       : S_TEXT/UTF8
Codec ID/Info                  : UTF-8 Plain Text
Duration                       : 1h 53mn
Bit rate                       : 58 bps
Count of elements              : 1547
Stream size                    : 48.6 KiB (0%)
Title                          : SDH
Language                       : English
Default                        : No
Forced                         : No

Menu
00:00:00.000                   : en:00:00:00.000
00:09:42.040                   : en:00:09:42.040
00:19:28.584                   : en:00:19:28.584
00:28:50.771                   : en:00:28:50.771
00:38:34.187                   : en:00:38:34.187
00:48:46.882                   : en:00:48:46.882
00:57:23.774                   : en:00:57:23.774
01:07:02.602                   : en:01:07:02.602
01:15:27.982                   : en:01:15:27.982
01:25:55.150                   : en:01:25:55.150
01:35:42.070                   : en:01:35:42.070
01:44:02.153                   : en:01:44:02.153



Скриншоты:
[+] Всего файлов в раздаче - 1:
Mary.Shelley.2017.BDRip.1080p.mkv8.17 GB

Текущая раздача:
ДатаКомментарии    РазмерПиры
2018-09-20 U Красавица для чудовища / Mary Shelley (2017) BDRip 1080p | iTunes 8.17 GB ↑ 95 ↓ 36

Показать еще раздачи по запросу красавица:
2018-04-08 U Красавица Мемфиса / Memphis Belle (1990) HDRip от Koenig | D 1.45 GB ↑ 43 ↓ 22
2017-12-24 U Красавица и чудовище: Чудесное Рождество / Beauty and the Beast: The Enchanted Christmas (1997) BDRip-AVC от Koenig | D, P 1.45 GB ↑ 328 ↓ 43
2017-07-31 U Красавица и чудовище / Beauty and the Beast (2017) BDRip от HQCLUB | D | Лицензия 1К2.18 GB ↑ 64 ↓ 36
2017-06-26 U Красавица и чудовище / Beauty and the Beast (2017) BDRip 720p от Scarabey | Лицензия 5.03 GB ↑ 310 ↓ 30
2017-06-25 U Красавица и чудовище / Beauty and the Beast (2017) BDRip-AVC от New-Team | Лицензия 2.96 GB ↑ 194 ↓ 57
2017-06-25 U Красавица и чудовище / Beauty and the Beast (2017) BDRip-AVC от ExKinoRay | Лицензия 2К2.96 GB ↑ 62 ↓ 16
2017-06-24 U Красавица и чудовище / Beauty and the Beast (2017) BDRip от MegaPeer | Лицензия 2.18 GB ↑ 119 ↓ 26

Отзывы
Зарегистрируйтесь чтобы добавить комментарий.
Обратная связь
Copyleft ©