↑↓Torrent.by
Поиск
Логин: Регистрация
Пароль: Восстановить пароль
Загрузка...

Следующее поколение / Next Gen (2018) WEBRip от Portablius | D

Скачать sleduyuschee-pokolenie-next-gen-2018-webrip-ot-portablius-d.torrent
U Магнитная ссылка Размер: 745.38 MB Раздают: 97 Качают: 12 Добавлен: 2018-09-20 14:32:06
Следующее поколение / Next Gen (2018) WEBRip от Portablius | D

Название: Следующее поколение
Оригинальное название: Next Gen
Год выхода: 2018
Жанр: Мультфильм, комедия, приключения, фантастика
Режиссеры: Кевин Р. Адамс, Джо Ксандер
В ролях: Джон Красински, Шарлин Йи, Джейсон Судейкис, Майкл Пенья, Дэвид Кросс, Констанс Ву, Киана Ледэ, Анна Акана, Иссак Райан Браун, Реба Бур

О фильме: Недалекое будущее. Девушке-подростку Су приходится расти в изоляции: папы постоянно нет дома, а мама больше интересуется новыми технологиями, чем собственной дочерью. Однажды она приводит Су на выставку последних достижений науки и техники, где та случайно помогает сбежать из лаборатории роботу последнего поколения. Наконец-то у подростка появляется настоящий друг.

Страна: Китай, Канада
Студия: NetFlix, Baozou Manhua, Tangent Animation
Продолжительность: 01:45:55
Перевод: Профессиональный (полное дублирование) АРК-ТВ VSI International
Субтитры: Нет

Файл
Кодек: XviD
Качество: WEBRip
Видео: 688x288 (2.39:1), 24.000 fps, XviD build 73 ~846 kbps avg, 0.18 bit/pixel
Звук: 48 kHz, MPEG Layer 3, 2 ch, ~128.00 kbps avg


[+] MediaInfo
General
Complete name               : Next.Gen.2018.WEBRip.ot.Portablius.avi
Format                      : AVI
Format/Info                 : Audio Video Interleave
File size                   : 745 MiB
Duration                    : 1 h 45 min
Overall bit rate            : 984 kb/s
Writing application         : VirtualDubMod 1.5.10.3 | www.virtualdub-fr.org || (build 2550/release)
Writing library             : VirtualDubMod build 2550/release

Video
ID                          : 0
Format                      : MPEG-4 Visual
Format profile              : Advanced Simple@L5
Format settings, BVOP       : 1
Format settings, QPel       : No
Format settings, GMC        : No warppoints
Format settings, Matrix     : Custom
Codec ID                    : XVID
Codec ID/Hint               : XviD
Duration                    : 1 h 45 min
Bit rate                    : 847 kb/s
Width                       : 688 pixels
Height                      : 288 pixels
Display aspect ratio        : 2.40:1
Frame rate                  : 24.000 FPS
Color space                 : YUV
Chroma subsampling          : 4:2:0
Bit depth                   : 8 bits
Scan type                   : Progressive
Compression mode            : Lossy
Bits/(Pixel*Frame)          : 0.178
Stream size                 : 641 MiB (86%)
Writing library             : XviD 73

Audio
ID                          : 1
Format                      : MPEG Audio
Format version              : Version 1
Format profile              : Layer 3
Codec ID                    : 55
Codec ID/Hint               : MP3
Duration                    : 1 h 45 min
Bit rate mode               : Constant
Bit rate                    : 128 kb/s
Channel(s)                  : 2 channels
Sampling rate               : 48.0 kHz
Compression mode            : Lossy
Stream size                 : 97.0 MiB (13%)
Alignment                   : Aligned on interleaves
Interleave, duration        : 42  ms (1.00 video frame)
Interleave, preload duratio : 504  ms
Writing library             : LAME3.99r
Encoding settings           : -m s -V 4 -q 2 -lowpass 17 -b 128




Скриншоты:
[+] Всего файлов в раздаче - 1:
Next.Gen.2018.WEBRip.ot.Portablius.avi745.38 MB

Текущая раздача:
ДатаКомментарии    РазмерПиры
2018-09-20 U Следующее поколение / Next Gen (2018) WEBRip от Portablius | D 745.38 MB ↑ 97 ↓ 12

Показать еще раздачи по запросу следующее:
2018-09-19 U Следующее поколение / Next Gen (2018) WEB-DLRip-AVC от ExKinoRay | D 1.89 GB ↑ 57 ↓ 14
2018-09-19 U Следующее поколение / Next Gen (2018) WEBRip 720p | D, L1 3.81 GB ↑ 37 ↓ 12
2018-09-19 U Следующее поколение / Next Gen (2018) WEB-DLRip от MegaPeer | D 1.46 GB ↑ 102 ↓ 18
2018-09-17 U Следующее поколение / Next Gen (2018) WEB-DLRip от MegaPeer | D 1.46 GB ↑ 186 ↓ 35
2018-09-15 U Следующее поколение / Next Gen (2018) WEB-DLRip 1080p | D 4.47 GB ↑ 918 ↓ 424
2018-09-08 U Следующее поколение / Next Gen (2018) WEBRip 1080p | Sub 4.27 GB ↑ 165 ↓ 65
2017-07-22 U На следующее утро / The Morning After (2015) HDRip | L 1.34 GB ↑ 69 ↓ 38

Отзывы
Зарегистрируйтесь чтобы добавить комментарий.
Обратная связь
Copyleft ©