↑↓Torrent.by
Поиск
Логин: Регистрация
Пароль: Восстановить пароль
Загрузка...

Днюха! (2018) WEB-DL 720p

Скачать dnyuha-2018-web-dl-720p.torrent
U Магнитная ссылка Размер: 1.77 GB Раздают: 435 Качают: 106 Добавлен: 2018-09-21 10:10:15
Днюха! (2018) WEB-DL 720p

Название: Днюха!
Год выхода: 2018
Жанр: Комедия
Режиссер: Роман Каримов
В ролях: Эльдар Калимулин, Данила Чванов, Алина Титова, Никита Санаев, Ангелина Семашкова, Виктория Иванькова, Евгения Годунова, Ирина Савакова

О фильме:
Отгуляв днюху своего лучшего друга, Антон очнулся в другом городе. Он заперт в квартире незнакомой девушки, ничего не помнит, а жесткие видеоролики его вчерашних подвигов взрывают интернет. Компромат с бешеной скоростью набирает лайки, его в любой момент может увидеть девушка Антона — Марина, в отношениях с которой он уже сделал самый важный шаг…

 
Страна: Россия
Студия: Bazelevs Distribution
Продолжительность: 01:31:40
Перевод: Оригинал

Файл
Формат: MKV
Качество: WEB-DL 720p
Видео: MPEG-4 AVC, ~ 2563 Кбит/с, 1280x720, 25 кадр/с
Звук: AC3, 2 ch, 192 Кбит/с

Релиз от: Getty


[+] MediaInfo
General
Unique ID                   : 224148859823397840906563237297772023101 (0xA8A180076EC4F5F2A627FF84BBDBCD3D)
Complete name               : K:Dnyuha.2018.WEB-DL.(720p).Getty.mkv
Format                      : Matroska
Format version              : Version 4 / Version 2
File size                   : 1.77 GiB
Duration                    : 1 h 31 min
Overall bit rate            : 2 757 kb/s
Movie name                  : Dnyuha.2018.WEB-DL.(720p).Getty
Encoded date                : UTC 2018-09-20 10:31:46
Writing application         : mkvmerge v7.8.0 ('River Man') 32bit built on Mar 27 2015 16:18:02
Writing library             : libebml v1.3.1 + libmatroska v1.4.2

Video
ID                          : 1
Format                      : AVC
Format/Info                 : Advanced Video Codec
Format profile              : High@L4
Format settings, CABAC      : Yes
Format settings, ReFrames   : 4 frames
Format settings, GOP        : M=7, N=50
Codec ID                    : V_MPEG4/ISO/AVC
Duration                    : 1 h 31 min
Bit rate                    : 2 563 kb/s
Width                       : 1 280 pixels
Height                      : 720 pixels
Display aspect ratio        : 16:9
Frame rate mode             : Constant
Frame rate                  : 25.000 FPS
Color space                 : YUV
Chroma subsampling          : 4:2:0
Bit depth                   : 8 bits
Scan type                   : Progressive
Bits/(Pixel*Frame)          : 0.111
Stream size                 : 1.64 GiB (93%)
Default                     : Yes
Forced                      : No

Audio
ID                          : 2
Format                      : AC-3
Format/Info                 : Audio Coding 3
Format settings, Endianness : Big
Codec ID                    : A_AC3
Duration                    : 1 h 31 min
Bit rate mode               : Constant
Bit rate                    : 192 kb/s
Channel(s)                  : 2 channels
Channel positions           : Front: L R
Sampling rate               : 48.0 kHz
Frame rate                  : 31.250 FPS (1536 spf)
Bit depth                   : 16 bits
Compression mode            : Lossy
Stream size                 : 126 MiB (7%)
Service kind                : Complete Main
Default                     : Yes
Forced                      : No




Скриншоты:
[+] Всего файлов в раздаче - 1:
Dnyuha.2018.WEB-DL.(720p).Getty.mkv1.77 GB

Текущая раздача:
ДатаКомментарии    РазмерПиры
2018-09-21 U Днюха! (2018) WEB-DL 720p 1.77 GB ↑ 435 ↓ 106

Показать еще раздачи по запросу днюха:
2018-09-22 U Днюха! (2018) WEB-DLRip от Portablius 745.22 MB ↑ 161 ↓ 41
2018-09-22 U Днюха! (2018) WEB-DLRip от Files-x 1К1.33 GB ↑ 83 ↓ 27
2018-09-22 U Днюха! (2018) WEB-DLRip от Scarabey 1.41 GB ↑ 106 ↓ 39
2018-09-21 U Днюха! (2018) WEB-DLRip | КПК 1К411.81 MB ↑ 96 ↓ 16
2018-09-21 U Днюха! (2018) WEB-DLRip-AVC от ExKinoRay 743.95 MB ↑ 258 ↓ 67
2018-09-21 U Днюха! (2018) WEB-DLRip-AVC от Files-x 1.36 GB ↑ 353 ↓ 85
2018-09-21 U Днюха! (2018) WEB-DLRip от Dalemake 2К1.46 GB ↑ 782 ↓ 181

Отзывы
Зарегистрируйтесь чтобы добавить комментарий.
Обратная связь
Copyleft ©