↑↓Torrent.by
Поиск
Логин: Регистрация
Пароль: Восстановить пароль
Загрузка...

Днюха! (2018) WEB-DLRip-AVC от ExKinoRay

Скачать dnyuha-2018-web-dlrip-avc-ot-exkinoray.torrent
U Магнитная ссылка Размер: 743.95 MB Раздают: 259 Качают: 67 Добавлен: 2018-09-21 10:10:34
Днюха! (2018) WEB-DLRip-AVC от ExKinoRay

Название: Днюха!
Год выхода: 2018
Жанр:  Комедия
Режиссер: Роман Каримов
В ролях: Эльдар Калимулин, Данила Чванов, Алина Титова, Никита Санаев, Ангелина Семашкова, Виктория Иванькова, Евгения Годунова, Ирина Савакова

О фильме :
Отгуляв днюху своего лучшего друга, Антон очнулся в другом городе. Он заперт в квартире незнакомой девушки, ничего не помнит, а жесткие видеоролики его вчерашних подвигов взрывают интернет. Компромат с бешеной скоростью набирает лайки, его в любой момент может увидеть девушка Антона — Марина, в отношениях с которой он уже сделал самый важный шаг…

Страна: Россия
Студия: Bazelevs Distribution
Продолжительность: 01:31:40
Язык: Русский

Файл
Формат: MKV
Качество: WEB-DLRip-AVC
Видео: MPEG-4 AVC, 768x432, ~ 1061 Кбит/с
Аудио:  AAC-HE, 2 ch, ~ 76 Кбит/с


[+] MI
Общее
Уникальный идентификатор : 190040604560998208733101752468708935153 (0x8EF87D357BDA340B9E34D83C19BE45F1)
Полное имя : D:MOVIESDnyuha.2018.ExKinoRay.mkv
Формат : Matroska
Версия формата : Version 4 / Version 2
Размер файла : 744 Мбайт
Продолжительность : 1 ч. 31 м.
Общий поток : 1135 Кбит/сек
Дата кодирования : UTC 2018-09-20 17:50:27
Программа кодирования : mkvmerge v15.0.0 ('Duel with the Devil') 64-bit
Библиотека кодирования : libebml v1.3.5 + libmatroska v1.4.5

Видео
Идентификатор : 1
Формат : AVC
Формат/Информация : Advanced Video Codec
Профиль формата : High@L4.1
Параметр CABAC формата : Да
Параметр RefFrames формата : 12 кадров
Идентификатор кодека : V_MPEG4/ISO/AVC
Продолжительность : 1 ч. 31 м.
Битрейт : 1061 Кбит/сек
Ширина : 768 пикселей
Высота : 432 пикселя
Соотношение сторон : 16:9
Режим частоты кадров : Постоянный
Частота кадров : 25,000 кадров/сек
Цветовое пространство : YUV
Субдискретизация насыщенности : 4:2:0
Битовая глубина : 8 бит
Тип развёртки : Прогрессивная
Бит/(Пиксели*Кадры) : 0.128
Размер потока : 693 Мбайт (93%)
Библиотека кодирования : x264 core 152 r2851kMod ba24899
Настройки программы : cabac=1 / ref=12 / deblock=1:-3:-3 / analyse=0x3:0x133 / me=umh / subme=10 / psy=1 / fade_compensate=0.00 / psy_rd=1.00:0.14 / mixed_ref=1 / me_range=32 / chroma_me=1 / trellis=2 / 8x8dct=1 / cqm=0 / deadzone=21,11 / fast_pskip=0 / chroma_qp_offset=-3 / threads=6 / lookahead_threads=1 / sliced_threads=0 / nr=0 / decimate=0 / interlaced=0 / bluray_compat=0 / constrained_intra=0 / bframes=11 / b_pyramid=2 / b_adapt=2 / b_bias=0 / direct=3 / weightb=1 / open_gop=0 / weightp=2 / keyint=250 / keyint_min=24 / scenecut=40 / intra_refresh=0 / rc_lookahead=40 / rc=2pass / mbtree=1 / bitrate=1061 / ratetol=1.0 / qcomp=0.60 / qpmin=0 / qpmax=69 / qpstep=4 / cplxblur=20.0 / qblur=0.5 / ip_ratio=1.40 / aq=3:1.00
Default : Да
Forced : Нет

Аудио
Идентификатор : 2
Формат : AAC
Формат/Информация : Advanced Audio Codec
Профиль формата : HE-AAC / LC
Идентификатор кодека : A_AAC
Продолжительность : 1 ч. 31 м.
Битрейт : 76,0 Кбит/сек
Каналы : 2 канала
Расположение каналов : Front: L R
Частота : 48,0 КГц / 24,0 КГц
Частота кадров : 23,438 кадра/сек (1024 SPF)
Метод сжатия : С потерями
Задержка видео : 31 мс.
Размер потока : 49,8 Мбайт (7%)
Default : Да
Forced : Нет



Скриншоты:
[+] Всего файлов в раздаче - 1:
Dnyuha.2018.ExKinoRay.mkv743.95 MB

Текущая раздача:
ДатаКомментарии    РазмерПиры
2018-09-21 U Днюха! (2018) WEB-DLRip-AVC от ExKinoRay 743.95 MB ↑ 259 ↓ 67

Показать еще раздачи по запросу днюха:
2018-09-22 U Днюха! (2018) WEB-DLRip от Portablius 745.22 MB ↑ 161 ↓ 41
2018-09-22 U Днюха! (2018) WEB-DLRip от Files-x 1К1.33 GB ↑ 87 ↓ 27
2018-09-22 U Днюха! (2018) WEB-DLRip от Scarabey 1.41 GB ↑ 106 ↓ 39
2018-09-21 U Днюха! (2018) WEB-DLRip | КПК 1К411.81 MB ↑ 96 ↓ 16
2018-09-21 U Днюха! (2018) WEB-DLRip-AVC от Files-x 1.36 GB ↑ 354 ↓ 85
2018-09-21 U Днюха! (2018) WEB-DL 720p 1.77 GB ↑ 435 ↓ 106
2018-09-21 U Днюха! (2018) WEB-DLRip от Dalemake 2К1.46 GB ↑ 784 ↓ 181

Отзывы
Зарегистрируйтесь чтобы добавить комментарий.
Обратная связь
Copyleft ©