↑↓Torrent.by
Поиск
Логин: Регистрация
Пароль: Восстановить пароль
Загрузка...

Звезда шерифа / Одинокая звезда / Lone Star (1996) WEB-DL 1080p от ExKinoRay | P, A

Скачать zvezda-sherifa-odinokaya-lone-star-1996-web-dl-1080p-ot-exkinoray-p-a.torrent
U Магнитная ссылка Размер: 6.69 GB Раздают: 242 Качают: 21 Добавлен: 2018-09-22 15:11:47
Звезда шерифа / Одинокая звезда / Lone Star (1996) WEB-DL 1080p от ExKinoRay | P, A

Название: Звезда шерифа (Одинокая звезда)
Оригинальное название: Lone Star
Год выхода: 1996
Жанр: Детектив, драма, вестерн
Режиссер: Джон Сэйлз
В ролях: Крис Купер, Крис Кристофферсон, Элизабет Пенья, Мэттью МакКонахи, Фрэнсис МакДорманд, Стивен Дж. Лэнг, Джо Мортон, Рон Кэнада, Мириам Колон, Клифтон Джеймс

О фильме:
На юге Техаса, в приграничном районе, случайно находят останки человека и по звезде определяют, что это был шериф Чарли Уэйд. Сэм Дидз начинает расследование и выясняет, что одновременно с исчезновением Уэйда пропала крупная сумма денег и к этому мог иметь отношение его отец Бадди Дидз.

Выпущено: США, Castle Rock Entertainment
Продолжительность: 02:15:23
Перевод: Профессиональный многоголосый, авторский

Файл
Кодек: x264
Качество: WEB-DL 1080p
Видео: MPEG-4 AVC, 6128 Kбит/с, 1920x816
Звук №1: Русский | AC3, 6 ch, 384 Кбит/с | Профессиональный многоголосый
Звук №2: Русский | AC3, 2 ch, 192 Кбит/с | Авторский - Петр Карцев
Звук №3: Английский | EAC3, 2 ch, 224 Кбит/с
Субтитры: Английские

Релиз:


[+] Инфо-файл
Формат                                   : Matroska
Версия формата                           : Version 2
Размер файла                             : 6,69 Гбайт
Продолжительность                        : 2 ч. 15 м.
Режим общего битрейта                    : Переменный
Общий поток                              : 7069 Кбит/сек
Название фильма                          : Lone.Star.1996.1080p.AMZN.WEB-DL.zzZGVvv
Дата кодирования                         : UTC 2018-09-21 14:20:40
Программа кодирования                    : mkvmerge v5.8.0 ('No Sleep / Pillow') built on Sep  2 2012 15:37:04
Библиотека кодирования                   : libebml v1.2.3 + libmatroska v1.3.0
Attachements                             : cover.jpg

Видео
Идентификатор                            : 1
Формат                                   : AVC
Формат/Информация                        : Advanced Video Codec
Профиль формата                          : High@L4
Параметр CABAC формата                   : Да
Параметр ReFrames формата                : 4 кадра
Идентификатор кодека                     : V_MPEG4/ISO/AVC
Продолжительность                        : 2 ч. 15 м.
Вид битрейта                             : Переменный
Битрейт                                  : 6128 Кбит/сек
Максимальный битрейт                     : 15,0 Мбит/сек
Ширина                                   : 1920 пикселей
Высота                                   : 816 пикселей
Соотношение сторон                       : 2,35:1
Режим частоты кадров                     : Постоянный
Частота кадров                           : 23,976 кадра/сек
Цветовое пространство                    : YUV
Субдискретизация насыщенности            : 4:2:0
Битовая глубина                          : 8 бит
Тип развёртки                            : Прогрессивная
Бит/(Пиксели*Кадры)                      : 0.163
Размер потока                            : 5,80 Гбайт (87%)
Библиотека кодирования                   : x264 core 148 r2623 d5b2374
Настройки программы                      : cabac=1 / ref=4 / deblock=1:-1:-1 / analyse=0x3:0x133 / me=umh / subme=9 / psy=1 / psy_rd=1.00:0.15 / mixed_ref=1 / me_range=24 / chroma_me=1 / trellis=2 / 8x8dct=1 / cqm=0 / deadzone=21,11 / fast_pskip=1 / chroma_qp_offset=-3 / threads=25 / lookahead_threads=4 / sliced_threads=0 / nr=150 / decimate=1 / interlaced=0 / bluray_compat=0 / constrained_intra=0 / bframes=8 / b_pyramid=2 / b_adapt=2 / b_bias=0 / direct=3 / weightb=1 / open_gop=0 / weightp=2 / keyint=120 / keyint_min=61 / scenecut=0 / intra_refresh=0 / rc_lookahead=120 / rc=crf / mbtree=1 / crf=18.0 / qcomp=0.60 / qpmin=0 / qpmax=69 / qpstep=4 / vbv_maxrate=15000 / vbv_bufsize=31250 / crf_max=0.0 / nal_hrd=vbr / filler=0 / ip_ratio=1.40 / aq=3:1.00
Язык                                     : English
Default                                  : Да
Forced                                   : Нет
Цветовой диапазон                        : Limited
Основные цвета                           : BT.709
Характеристики трансфера                 : BT.709
Коэффициенты матрицы                     : BT.709

Аудио #1
Идентификатор                            : 2
Формат                                   : AC-3
Формат/Информация                        : Audio Coding 3
Расширение режима                        : CM (complete main)
Параметр Endianness формата              : Big
Идентификатор кодека                     : A_AC3
Продолжительность                        : 2 ч. 15 м.
Вид битрейта                             : Постоянный
Битрейт                                  : 384 Кбит/сек
Каналы                                   : 6 каналов
Расположение каналов                     : Front: L C R, Side: L R, LFE
Частота                                  : 48,0 КГц
Метод сжатия                             : С потерями
Размер потока                            : 372 Мбайт (5%)
Заголовок                                : MVO
Язык                                     : Russian
Default                                  : Да
Forced                                   : Нет

Аудио #2
Идентификатор                            : 3
Формат                                   : AC-3
Формат/Информация                        : Audio Coding 3
Расширение режима                        : CM (complete main)
Параметр Endianness формата              : Big
Идентификатор кодека                     : A_AC3
Продолжительность                        : 2 ч. 15 м.
Вид битрейта                             : Постоянный
Битрейт                                  : 192 Кбит/сек
Каналы                                   : 2 канала
Расположение каналов                     : Front: L R
Частота                                  : 48,0 КГц
Метод сжатия                             : С потерями
Размер потока                            : 186 Мбайт (3%)
Заголовок                                : AVO (Карцев)
Язык                                     : Russian
Default                                  : Нет
Forced                                   : Нет

Аудио #3
Идентификатор                            : 4
Формат                                   : E-AC-3
Формат/Информация                        : Audio Coding 3
Параметр Endianness формата              : Big
Идентификатор кодека                     : A_EAC3
Продолжительность                        : 2 ч. 15 м.
Вид битрейта                             : Постоянный
Битрейт                                  : 224 Кбит/сек
Каналы                                   : 2 канала
Расположение каналов                     : Front: L R
Частота                                  : 48,0 КГц
Метод сжатия                             : С потерями
Размер потока                            : 217 Мбайт (3%)
Язык                                     : English
Default                                  : Нет
Forced                                   : Нет

Текст
Идентификатор                            : 5
Формат                                   : UTF-8
Идентификатор кодека                     : S_TEXT/UTF8
Идентификатор кодека/Информация          : UTF-8 Plain Text
Язык                                     : English
Default                                  : Нет
Forced                                   : Нет




Скриншоты:
[+] Всего файлов в раздаче - 1:
Lone.Star.1996.1080p.AMZN.WEB-DL.ExKinoRay.mkv6.69 GB

Показать еще раздачи по запросу звезда:
2019-02-03 U Звезда родилась / A Star Is Born (2018) BDRip-HEVC 1080p от HANNIBAL | Лицензия 4.44 GB ↑ 141 ↓ 20
2019-01-29 U Звезда родилась / A Star Is Born (2018) BDRip 1080p от qqss44 & MegaPeer | Лицензия 7.75 GB ↑ 57 ↓ 23
2019-01-28 U Звезда родилась / A Star Is Born (2018) BDRip 720p от k.e.n & MegaPeer | Лицензия 4.37 GB ↑ 102 ↓ 48
2019-01-28 U Звезда родилась / A Star Is Born (2018) HDRip от Scarabey | Лицензия 1.45 GB ↑ 295 ↓ 12
2019-01-28 U Звезда родилась / A Star Is Born (2018) HDRip от Scarabey | Лицензия 2.18 GB ↑ 30 ↓ 5
2019-01-27 U Звезда родилась / A Star Is Born (2018) BDRip 720p от HELLYWOOD | Лицензия 5.76 GB ↑ 102 ↓ 91
2019-01-27 U Звезда родилась / A Star Is Born (2018) BDRip от MegaPeer | Лицензия 800.75 MB ↑ 39 ↓ 14

Отзывы
Зарегистрируйтесь чтобы добавить комментарий.
Обратная связь
Copyleft ©