↑↓Torrent.by
Поиск
Логин: Регистрация
Пароль: Восстановить пароль
Загрузка...

Днюха! (2018) WEB-DLRip от Portablius

Скачать dnyuha-2018-web-dlrip-ot-portablius.torrent
U Магнитная ссылка Размер: 745.22 MB Раздают: 206 Качают: 44 Добавлен: 2018-09-22 19:07:09
Днюха! (2018) WEB-DLRip от Portablius

Название: Днюха!
Год выхода: 2018
Жанр: Комедия
Режиссер: Роман Каримов
В ролях: Эльдар Калимулин, Данила Чванов, Алина Титова, Никита Санаев, Ангелина Семашкова, Виктория Иванькова, Евгения Годунова, Ирина Савакова

О фильме: Отгуляв днюху своего лучшего друга, Антон очнулся в другом городе. Он заперт в квартире незнакомой девушки, ничего не помнит, а жесткие видеоролики его вчерашних подвигов взрывают интернет. Компромат с бешеной скоростью набирает лайки, его в любой момент может увидеть девушка Антона — Марина, в отношениях с которой он уже сделал самый важный шаг…

Страна: Россия
Студия: Bazelevs Distribution
Продолжительность: 01:31:40
Перевод: Не требуется
Субтитры: Нет

Файл
Кодек: XviD
Качество: WEB-DLRip
Видео: 656x368 (1.78:1), 25 fps, XviD build 73 ~998 kbps avg, 0.17 bit/pixel
Звук: 48 kHz, MPEG Layer 3, 2 ch, ~128.00 kbps avg


[+] MediaInfo
General
Complete name               : Dnyukha.2018.WEB-DLRip.ot.Portablius.avi
Format                      : AVI
Format/Info                 : Audio Video Interleave
File size                   : 745 MiB
Duration                    : 1 h 31 min
Overall bit rate            : 1 137 kb/s
Writing application         : VirtualDubMod 1.5.10.3 | www.virtualdub-fr.org || (build 2550/release)
Writing library             : VirtualDubMod build 2550/release

Video
ID                          : 0
Format                      : MPEG-4 Visual
Format profile              : Advanced Simple@L5
Format settings, BVOP       : 1
Format settings, QPel       : No
Format settings, GMC        : No warppoints
Format settings, Matrix     : Custom
Codec ID                    : XVID
Codec ID/Hint               : XviD
Duration                    : 1 h 31 min
Bit rate                    : 999 kb/s
Width                       : 656 pixels
Height                      : 368 pixels
Display aspect ratio        : 16:9
Frame rate                  : 25.000 FPS
Color space                 : YUV
Chroma subsampling          : 4:2:0
Bit depth                   : 8 bits
Scan type                   : Progressive
Compression mode            : Lossy
Bits/(Pixel*Frame)          : 0.166
Stream size                 : 655 MiB (88%)
Writing library             : XviD 73

Audio
ID                          : 1
Format                      : MPEG Audio
Format version              : Version 1
Format profile              : Layer 3
Codec ID                    : 55
Codec ID/Hint               : MP3
Duration                    : 1 h 31 min
Bit rate mode               : Constant
Bit rate                    : 128 kb/s
Channel(s)                  : 2 channels
Sampling rate               : 48.0 kHz
Compression mode            : Lossy
Stream size                 : 83.9 MiB (11%)
Alignment                   : Aligned on interleaves
Interleave, duration        : 40  ms (1.00 video frame)
Interleave, preload duratio : 504  ms
Writing library             : LAME3.99r
Encoding settings           : -m s -V 4 -q 2 -lowpass 17 -b 128




Скриншоты:
[+] Всего файлов в раздаче - 1:
Dnyukha.2018.WEB-DLRip.ot.Portablius.avi745.22 MB

Текущая раздача:
ДатаКомментарии    РазмерПиры
2018-09-22 U Днюха! (2018) WEB-DLRip от Portablius 745.22 MB ↑ 206 ↓ 44

Показать еще раздачи по запросу днюха:
2018-09-22 U Днюха! (2018) WEB-DLRip от Files-x 1К1.33 GB ↑ 168 ↓ 31
2018-09-22 U Днюха! (2018) WEB-DLRip от Scarabey 1.41 GB ↑ 105 ↓ 40
2018-09-21 U Днюха! (2018) WEB-DLRip | КПК 1К411.81 MB ↑ 96 ↓ 16
2018-09-21 U Днюха! (2018) WEB-DLRip-AVC от ExKinoRay 743.95 MB ↑ 267 ↓ 67
2018-09-21 U Днюха! (2018) WEB-DLRip-AVC от Files-x 1.36 GB ↑ 411 ↓ 89
2018-09-21 U Днюха! (2018) WEB-DL 720p 1.77 GB ↑ 442 ↓ 107
2018-09-21 U Днюха! (2018) WEB-DLRip от Dalemake 2К1.46 GB ↑ 881 ↓ 182

Отзывы
Зарегистрируйтесь чтобы добавить комментарий.
Обратная связь
Copyleft ©