↑↓Torrent.by
Поиск
Логин: Регистрация
Пароль: Восстановить пароль
Загрузка...

Я объявляю вам войну (1990) DVDRip-AVC от KORSAR

Скачать ya-obyavlyayu-vam-voynu-1990-dvdrip-avc-ot-korsar.torrent
U Магнитная ссылка Размер: 1.77 GB Раздают: 35 Качают: 16 Добавлен: 2018-09-25 07:22:04
Я объявляю вам войну (1990) DVDRip-AVC от KORSAR

Жанр:  Драма, криминал
Год выпуска: 1990
Продолжительность: 01:23:28
Режиссёр: Ярополк Лапшин
В ролях: Николай Еременко мл., Анжелика Неволина, Елена Тонунц, Геннадий Сайфулин, Наталья Потапова, Олег Корчиков, Николай Сектименко, Дмитрий Наливайчук, Алексей Шемес, Любовь Теплова

Описание: Отслужив в Афганистане, офицер Ерохин возвращается в родной город и надеется на спокойную жизнь. Однако профессиональный опыт подсказывает ему, что и здесь все погрязло в коррупции. Получив поддержку друзей, Ерохин вступает в борьбу с преступниками…

Релиз:

Качество видео: DVDRip-AVC
Формат видео: MKV

Видео: MPEG-4 AVC, 690x572@736x572, 25.000 fps, 2524 Kbps
Аудио: Russian; AС3; 6ch; ~448 kbps
[+] Инфо файл

x264 [info]: frame I:690   Avg QP:17.09  size: 72796
x264 [info]: frame P:24420 Avg QP:18.71  size: 37350
x264 [info]: frame B:100110 Avg QP:20.92  size:  6538
x264 [info]: consecutive B-frames:  0.8%  1.1%  5.9%  7.6% 26.9% 51.9%  4.1%  0.9%  0.4%  0.3%  0.1%
Общее
Уникальный идентификатор                 : 187471926055851520967439639915463530412 (0x8D09C794ABCF2BB0B8C41123890557AC)
Полное имя                               : D:Я объявляю вам войну_1990-DVDRip-AVC_KORSAR.mkv
Формат                                   : Matroska
Версия формата                           : Version 2
Размер файла                             : 1,77 Гбайт
Продолжительность                        : 1 ч. 23 м.
Общий поток                              : 3032 Кбит/сек
Название фильма                          : Я объявляю вам войну_1990-DVDRip-AVC_KORSAR
Дата кодирования                         : UTC 2018-09-21 15:26:51
Программа кодирования                    : mkvmerge v5.8.0 ('No Sleep / Pillow') built on Sep  2 2012 15:37:04
Библиотека кодирования                   : libebml v1.2.3 + libmatroska v1.3.0

Видео
Идентификатор                            : 1
Формат                                   : AVC
Формат/Информация                        : Advanced Video Codec
Профиль формата                          : High@L4.1
Параметр CABAC формата                   : Да
Параметр RefFrames формата               : 14 кадров
Идентификатор кодека                     : V_MPEG4/ISO/AVC
Продолжительность                        : 1 ч. 23 м.
Битрейт                                  : 2524 Кбит/сек
Ширина                                   : 690 пикселей
Высота                                   : 572 пикселя
Соотношение сторон                       : 1,287
Режим частоты кадров                     : Постоянный
Частота кадров                           : 25,000 кадров/сек
Цветовое пространство                    : YUV
Субдискретизация насыщенности            : 4:2:0
Битовая глубина                          : 8 бит
Тип развёртки                            : Прогрессивная
Бит/(Пиксели*Кадры)                      : 0.256
Размер потока                            : 1,47 Гбайт (83%)
Библиотека кодирования                   : x264 core 152 r2851kMod ba24899
Настройки программы                      : cabac=1 / ref=14 / deblock=1:-2:-1 / analyse=0x3:0x133 / me=umh / subme=10 / psy=1 / fade_compensate=0.00 / psy_rd=1.05:0.10 / mixed_ref=1 / me_range=40 / chroma_me=1 / trellis=2 / 8x8dct=1 / cqm=0 / deadzone=21,11 / fast_pskip=1 / chroma_qp_offset=-3 / threads=12 / lookahead_threads=3 / sliced_threads=0 / nr=0 / decimate=1 / interlaced=0 / bluray_compat=0 / constrained_intra=0 / bframes=10 / b_pyramid=2 / b_adapt=2 / b_bias=0 / direct=1 / weightb=1 / open_gop=0 / weightp=2 / keyint=250 / keyint_min=25 / scenecut=40 / intra_refresh=0 / rc=crf / mbtree=0 / crf=18.3000 / qcomp=0.63 / qpmin=0 / qpmax=39 / qpstep=4 / ip_ratio=1.40 / pb_ratio=1.30 / aq=1:0.80
Язык                                     : English
Default                                  : Да
Forced                                   : Нет
Цветовой диапазон                        : Limited
Основные цвета                           : BT.601 PAL
Характеристики трансфера                 : BT.470 System B, BT.470 System G
Коэффициенты матрицы                     : BT.601

Аудио
Идентификатор                            : 2
Формат                                   : AC-3
Формат/Информация                        : Audio Coding 3
Параметр Endianness формата              : Big
Идентификатор кодека                     : A_AC3
Продолжительность                        : 1 ч. 23 м.
Вид битрейта                             : Постоянный
Битрейт                                  : 448 Кбит/сек
Каналы                                   : 6 каналов
Расположение каналов                     : Front: L C R, Side: L R, LFE
Частота                                  : 48,0 КГц
Частота кадров                           : 31,250 кадров/сек (1536 SPF)
Битовая глубина                          : 16 бит
Метод сжатия                             : С потерями
Размер потока                            : 267 Мбайт (15%)
Язык                                     : Russian
Default                                  : Да
Forced                                   : Нет

Меню
00:00:00.000                             : en:Chapter 1
00:13:11.040                             : en:Chapter 2
00:25:04.320                             : en:Chapter 3
00:36:00.000                             : en:Chapter 4
00:49:14.880                             : en:Chapter 5
01:11:36.000                             : en:Chapter 6




Скриншоты:
[+] Всего файлов в раздаче - 1:
Я объявляю вам войну_1990-DVDRip-AVC_KORSAR.mkv1.77 GB

Текущая раздача:
ДатаКомментарии    РазмерПиры
2018-09-25 U Я объявляю вам войну (1990) DVDRip-AVC от KORSAR 1.77 GB ↑ 35 ↓ 16

Похожие раздачи по запросу - объявляю:
2013-10-29 U Я объявляю войну / I Declare War (2012) BDRip 720p 4.49 GB ↑ 16 ↓ 0

Отзывы
Зарегистрируйтесь чтобы добавить комментарий.
Обратная связь
Copyleft ©