↑↓Torrent.by
Поиск
Логин: Регистрация
Пароль: Восстановить пароль
Загрузка...

Искусство жить в Одессе (1989) DVDRip-AVC от KORSAR

Скачать iskusstvo-zhit-v-odesse-1989-dvdrip-avc-ot-korsar.torrent
U Магнитная ссылка Размер: 1.89 GB Раздают: 92 Качают: 34 Добавлен: 2018-09-26 13:50:13
Искусство жить в Одессе (1989) DVDRip-AVC от KORSAR

Год выпуска: 1989
Жанр:  драма, комедия
Режиссер: Георгий Юнгвальд-Хилькевич
В ролях: Алексей Петренко, Сергей Колтаков, Андрей Соколов, Олег Табаков, Светлана Крючкова, Виктор Авилов, Александр Ширвиндт, София Кузева, Зиновий Гердт, Наталья Позднякова, Сергей Мигицко, Михаил Боярский, Олег Школьник, Сергей Бехтерев, Гиви Лежава

Описание:
Фантазия-фейерверк на темы знаменитых и вечных 'Одесских рассказов' Исаака Бабеля: неподражаемый одесский юмор; немыслимые, но узнаваемые сюжеты; удивительные герои во главе с легендарным королем налетчиков - Беней Криком.

Страна: СССР
Продолжительность: 01:40:53

Релиз:

Кодек: х264
Качество: DVDRip-AVC
Видео: MPEG-4 AVC, 674x568@728x568, 25 fps, 2505 Кбит/с
Звук: AC3, 1 ch, 128 Кбит/с


[+] Инфо файл

x264 [info]: frame I:750   Avg QP:16.46  size: 64645
x264 [info]: frame P:30778 Avg QP:18.15  size: 33988
x264 [info]: frame B:119808 Avg QP:20.83  size:  7014
Общее
Уникальный идентификатор                 : 225369034258195482948031406628050378189 (0xA98C7F45FAB26B29A8A749F867191DCD)
Полное имя                               : D:Искусство жить в Одессе_1989-DVDRip-AVC_KORSAR.mkv
Формат                                   : Matroska
Версия формата                           : Version 2
Размер файла                             : 1,89 Гбайт
Продолжительность                        : 1 ч. 40 м.
Общий поток                              : 2687 Кбит/сек
Название фильма                          : Искусство жить в Одессе_1989-DVDRip-AVC_KORSAR
Дата кодирования                         : UTC 2018-09-24 12:45:59
Программа кодирования                    : mkvmerge v5.8.0 ('No Sleep / Pillow') built on Sep  2 2012 15:37:04
Библиотека кодирования                   : libebml v1.2.3 + libmatroska v1.3.0

Видео
Идентификатор                            : 1
Формат                                   : AVC
Формат/Информация                        : Advanced Video Codec
Профиль формата                          : High@L4.1
Параметр CABAC формата                   : Да
Параметр RefFrames формата               : 14 кадров
Идентификатор кодека                     : V_MPEG4/ISO/AVC
Продолжительность                        : 1 ч. 40 м.
Битрейт                                  : 2505 Кбит/сек
Ширина                                   : 674 пикселя
Высота                                   : 568 пикселей
Соотношение сторон                       : 1,282
Режим частоты кадров                     : Постоянный
Частота кадров                           : 25,000 кадров/сек
Цветовое пространство                    : YUV
Субдискретизация насыщенности            : 4:2:0
Битовая глубина                          : 8 бит
Тип развёртки                            : Прогрессивная
Бит/(Пиксели*Кадры)                      : 0.262
Размер потока                            : 1,77 Гбайт (93%)
Библиотека кодирования                   : x264 core 152 r2851kMod ba24899
Настройки программы                      : cabac=1 / ref=14 / deblock=1:-2:-1 / analyse=0x3:0x133 / me=umh / subme=10 / psy=1 / fade_compensate=0.00 / psy_rd=1.03:0.10 / mixed_ref=1 / me_range=32 / chroma_me=1 / trellis=2 / 8x8dct=1 / cqm=0 / deadzone=21,11 / fast_pskip=1 / chroma_qp_offset=-3 / threads=12 / lookahead_threads=3 / sliced_threads=0 / nr=0 / decimate=1 / interlaced=0 / bluray_compat=0 / constrained_intra=0 / bframes=10 / b_pyramid=2 / b_adapt=2 / b_bias=0 / direct=1 / weightb=1 / open_gop=0 / weightp=2 / keyint=250 / keyint_min=25 / scenecut=40 / intra_refresh=0 / rc=crf / mbtree=0 / crf=17.7000 / qcomp=0.63 / qpmin=0 / qpmax=39 / qpstep=4 / ip_ratio=1.40 / pb_ratio=1.30 / aq=1:0.70
Язык                                     : English
Default                                  : Да
Forced                                   : Нет
Цветовой диапазон                        : Limited
Основные цвета                           : BT.601 PAL
Характеристики трансфера                 : BT.470 System B, BT.470 System G
Коэффициенты матрицы                     : BT.601

Аудио
Идентификатор                            : 2
Формат                                   : AC-3
Формат/Информация                        : Audio Coding 3
Параметр Endianness формата              : Big
Идентификатор кодека                     : A_AC3
Продолжительность                        : 1 ч. 40 м.
Вид битрейта                             : Постоянный
Битрейт                                  : 128 Кбит/сек
Каналы                                   : 1 канал
Расположение каналов                     : Front: C
Частота                                  : 48,0 КГц
Частота кадров                           : 31,250 кадров/сек (1536 SPF)
Битовая глубина                          : 16 бит
Метод сжатия                             : С потерями
Размер потока                            : 92,4 Мбайт (5%)
Язык                                     : Russian
Default                                  : Да
Forced                                   : Нет

Меню
00:00:00.000                             : en:Chapter 1
00:08:38.040                             : en:Chapter 2
00:18:40.440                             : en:Chapter 3
00:37:03.480                             : en:Chapter 4
01:00:39.960                             : en:Chapter 5
01:19:25.080                             : en:Chapter 6
01:40:53.400                             : en:Chapter 7




Скриншоты:
[+] Всего файлов в раздаче - 1:
Искусство жить в Одессе_1989-DVDRip-AVC_KORSAR.mkv1.89 GB

Текущая раздача:
ДатаКомментарии    РазмерПиры
2018-09-26 U Искусство жить в Одессе (1989) DVDRip-AVC от KORSAR 1.89 GB ↑ 92 ↓ 34

Показать еще раздачи по запросу искусство:
2018-10-04 U Коди Лундин - 36,6 градусов. Искусство оставаться в живых! (2005) FB2 4.66 MB ↑ 118 ↓ 8
2018-09-09 U Вадим Уфимцев - Мастерство хамелеона. Искусство совершенной маскировки (2009) FB2 920.94 kB ↑ 88 ↓ 4
2018-07-09 U Джон Эриксон - Хакинг: искусство эксплойта (2010) PDF 2.04 MB ↑ 117 ↓ 11
2018-04-28 U Виктор Юрчук - Мужчине о женщине. Жизнь, общение или искусство не оставаться в дураках (1997) FB2 3.01 MB ↑ 159 ↓ 10
2017-12-22 U Кевин Даттон - Флипноз. Искусство мгновенного убеждения (2015) FB2 8.16 MB ↑ 404 ↓ 16
2017-12-08 U Дэвид Эшер - Искусство натурального сыроделия (2017) PDF 264.20 MB ↑ 246 ↓ 21
2017-08-24 U Чистое искусство (2016) WEB-DLRip-AVC от ExKinoRay | iTunes 746.24 MB ↑ 369 ↓ 28

Отзывы
Зарегистрируйтесь чтобы добавить комментарий.
Обратная связь
Copyleft ©