↑↓Torrent.by
Поиск
Логин: Регистрация
Пароль: Восстановить пароль
Загрузка...

Небоскреб / Skyscraper (2018) WEBRip 1080p | Локализованная версия | D

Скачать neboskreb-skyscraper-2018-webrip-1080p-lokalizovannaya-versiya-d.torrent
U Магнитная ссылка Размер: 3.92 GB Раздают: 120 Качают: 62 Добавлен: 2018-09-26 13:50:23
Небоскреб / Skyscraper (2018) WEBRip 1080p | Локализованная версия | D

Название: Небоскреб
Оригинальное название: Skyscraper
Год выхода: 2018
Жанр: боевик, триллер
Режиссер: Роусон Маршалл Тёрбер
В ролях: Дуэйн Джонсон, Нив Кэмпбелл, Пабло Шрайбер, Ноа Тейлор, Кевин Ранкин, Роланд Мёллер, Байрон Манн, Мэтт О`Лири, Адриан Холмс

Описание: Самый высокий и технологичный небоскрёб в мире становится центром огненной катастрофы. Только бывший агент ФБР, а теперь эксперт по безопасности Уилл Сойер может спасти вертикальный город под небесами. Когда нельзя доверять никому, а жизнь семьи в опасности, каждая секунда на счету.

Страна: США
Продолжительность: 01:42:24
Перевод: Дубляж

Файл
Качество: WEBRip 1080p
Видео: MPEG-4 AVC, 5120 kbps, 1920x800, 23.976 fps
Звук: 48 kHz/16 bit, AC3, 5.1 ch, ~384 kbps

by maksnew

ЦитатаКто-то писал:Исходник видео куплен с онлайн кинотеатра. Видеоряд локализован.


[+] MediaInfo
General
Unique ID                      : 157661608232716015106463514800516825275 (0x769C856FD33181215DFA9B073FB900BB)
Complete name                  : Skyscraper.2018.1080p.WEBRip.1080p.Rus.TeamHD.mkv
Format                         : Matroska
Format version                 : Version 4 / Version 2
File size                      : 3.92 GiB
Duration                       : 1 h 42 min
Overall bit rate               : 5 482 kb/s
Encoded date                   : UTC 2018-09-07 06:28:52
Writing application            : mkvmerge v25.0.0 ('Prog Noir') 64-bit
Writing library                : libebml v1.3.6 + libmatroska v1.4.9
Attachments                    : Skyscraper.2O18.D.WEB-DL.1O8Op_Chapters.xml

Video
ID                             : 1
Format                         : AVC
Format/Info                    : Advanced Video Codec
Format profile                 : High@L4
Format settings, CABAC         : Yes
Format settings, RefFrames     : 4 frames
Codec ID                       : V_MPEG4/ISO/AVC
Duration                       : 1 h 42 min
Bit rate                       : 5 120 kb/s
Width                          : 1 920 pixels
Height                         : 800 pixels
Display aspect ratio           : 2.40:1
Frame rate mode                : Constant
Frame rate                     : 23.976 (24000/1001) FPS
Color space                    : YUV
Chroma subsampling             : 4:2:0
Bit depth                      : 8 bits
Scan type                      : Progressive
Bits/(Pixel*Frame)             : 0.139
Stream size                    : 3.65 GiB (93%)
Writing library                : x264 core 142
Encoding settings              : cabac=1 / ref=3 / deblock=1:0:0 / analyse=0x3:0x113 / me=hex / subme=7 / psy=1 / psy_rd=1.00:0.00 / mixed_ref=1 / me_range=16 / chroma_me=1 / trellis=1 / 8x8dct=1 / cqm=0 / deadzone=21,11 / fast_pskip=1 / chroma_qp_offset=-2 / threads=48 / lookahead_threads=6 / sliced_threads=0 / nr=0 / decimate=1 / interlaced=0 / bluray_compat=0 / constrained_intra=0 / bframes=6 / b_pyramid=2 / b_adapt=1 / b_bias=0 / direct=1 / weightb=1 / open_gop=0 / weightp=2 / keyint=46 / keyint_min=24 / scenecut=0 / intra_refresh=0 / rc_lookahead=40 / rc=2pass / mbtree=1 / bitrate=5120 / ratetol=1.0 / qcomp=0.60 / qpmin=0 / qpmax=69 / qpstep=4 / cplxblur=20.0 / qblur=0.5 / vbv_maxrate=7680 / vbv_bufsize=20480 / nal_hrd=none / filler=0 / ip_ratio=1.40 / aq=1:1.00
Language                       : English
Default                        : Yes
Forced                         : No

Audio
ID                             : 2
Format                         : AC-3
Format/Info                    : Audio Coding 3
Format settings, Endianness    : Big
Codec ID                       : A_AC3
Duration                       : 1 h 42 min
Bit rate mode                  : Constant
Bit rate                       : 384 kb/s
Channel(s)                     : 6 channels
Channel positions              : Front: L C R, Side: L R, LFE
Sampling rate                  : 48.0 kHz
Frame rate                     : 31.250 FPS (1536 SPF)
Bit depth                      : 16 bits
Compression mode               : Lossy
Stream size                    : 281 MiB (7%)
Title                          : Дубляж
Language                       : Russian
Service kind                   : Complete Main
Default                        : Yes
Forced                         : No



Скриншоты:
[+] Всего файлов в раздаче - 1:
Skyscraper.2018.1080p.WEBRip.1080p.Rus.TeamHD.mkv3.92 GB

Текущая раздача:
ДатаКомментарии    РазмерПиры
2018-09-26 U Небоскреб / Skyscraper (2018) WEBRip 1080p | Локализованная версия | D 3.92 GB ↑ 120 ↓ 62

Показать еще раздачи по запросу небоскреб:
2018-10-05 U Небоскрёб / Skyscraper (2018) BDRip 1080p от qqss44 & MegaPeer | iTunes 7.55 GB ↑ 114 ↓ 42
2018-09-30 U Небоскрёб / Skyscraper (2018) HDRip от Scarabey | iTunes 1.40 GB ↑ 139 ↓ 42
2018-09-28 U Небоскрёб / Skyscraper (2018) HDRip от MegaPeer | iTunes 1.46 GB ↑ 124 ↓ 73
2018-09-28 U Небоскрёб / Skyscraper (2018) BDRip 720p от TeamHD | iTunes 4.67 GB ↑ 116 ↓ 89
2018-09-28 U Небоскрёб / Skyscraper (2018) BDRip 1080p от TeamHD | iTunes 10.72 GB ↑ 163 ↓ 171
2018-09-26 U Небоскрёб / Skyscraper (2018) WEB-DL 1080p | iTunes 3.84 GB ↑ 148 ↓ 62
2018-09-07 U Небоскрёб / Skyscraper (2018) WEB-DLRip-AVC от ivanes20031987 | iTunes 1К745.21 MB ↑ 167 ↓ 32

Отзывы
Зарегистрируйтесь чтобы добавить комментарий.
Обратная связь
Copyleft ©