↑↓Torrent.by
Поиск
Логин: Регистрация
Пароль: Восстановить пароль
Загрузка...

Агент в мини-юбке (2000) HDTVRip

Скачать agent-v-mini-yubke-2000-hdtvrip.torrent
U Магнитная ссылка Размер: 745.34 MB Раздают: 95 Качают: 12 Добавлен: 2018-09-26 13:50:26
Агент в мини-юбке (2000) HDTVRip

Агент в мини-юбке

Страна: Россия
Производство: Новый одеон
Год выпуска: 2000
Жанр:  комедия
Продолжительность: 01:04:07

Режиссер: Анатолий Эйрамджан
Автор сценария: Анатолий Эйрамджан

В ролях: Михаил Кокшенов, Александр Панкратов-Чёрный, Михаил Державин, Екатерина Зинченко, Любовь Полищук, Наталья Селезнёва, Л. Потапова

Описание: Поддавшись уговорам подруги, Наталья занимает частного агента с целью любой ценой добыть компромат, разоблачающий любовные похождения благоверного супруга Александра, отправляющегося в отпуск в тёплые страны. Но случается конфуз: фотография клиента теряется, и в поле зрения агента оказывается настоящий казанова...

Перевод: не требуется (оригинал)
Субтитры: нет

Качество: HDTVRip
Формат: AVI
Видео кодек: XviD
Аудио кодек: АС3
Видео: 656x480 (4:3), 25.000 fps, XviD build 73 ~1424 kbps avg
Аудио: 48 kHz, AC3 Dolby Digital, 2/0 (L,R) ch, ~192 kbps

Семпл


[+] Media Info
General
Complete name : Агент в мини-юбке.avi
Format : AVI
Format/Info : Audio Video Interleave
File size : 745 MiB
Duration : 1 h 4 min
Overall bit rate : 1 625 kb/s
Writing application : VirtualDubMod 1.5.10.3 (build 2550/release)
Writing library : VirtualDubMod build 2550/release

Video
ID : 0
Format : MPEG-4 Visual
Format profile : Advanced Simple@L5
Format settings : BVOP2 / Custom Matrix
Format settings, BVOP : 2
Format settings, QPel : No
Format settings, GMC : No warppoints
Format settings, Matrix : Custom
Codec ID : XVID
Codec ID/Hint : XviD
Duration : 1 h 4 min
Bit rate : 1 424 kb/s
Width : 656 pixels
Height : 480 pixels
Display aspect ratio : 4:3
Frame rate : 25.000 FPS
Color space : YUV
Chroma subsampling : 4:2:0
Bit depth : 8 bits
Scan type : Progressive
Compression mode : Lossy
Bits/(Pixel*Frame) : 0.181
Stream size : 653 MiB (88%)
Writing library : XviD 73

Audio
ID : 1
Format : AC-3
Format/Info : Audio Coding 3
Commercial name : Dolby Digital
Codec ID : 2000
Duration : 1 h 4 min
Bit rate mode : Constant
Bit rate : 192 kb/s
Channel(s) : 2 channels
Channel layout : L R
Sampling rate : 48.0 kHz
Frame rate : 31.250 FPS (1536 SPF)
Bit depth : 16 bits
Compression mode : Lossy
Stream size : 88.0 MiB (12%)
Alignment : Split accross interleaves
Interleave, duration : 40 ms (1.00 video frame)
Interleave, preload duratio : 500 ms
Service kind : Complete Main



Скриншоты:
[+] Всего файлов в раздаче - 1:
Агент в мини-юбке.avi745.34 MB

Текущая раздача:
ДатаКомментарии    РазмерПиры
2018-09-26 U Агент в мини-юбке (2000) HDTVRip 745.34 MB ↑ 95 ↓ 12

Показать еще раздачи по запросу агент:
2018-03-07 U КЭДА: Квантово Энергетический Двойной Агент / QEDA (2017) WEBRip | L1 1.06 GB ↑ 419 ↓ 100
2017-09-18 U Секретный агент / Unlocked (2017) BDRip от HQ-ViDEO | Лицензия 1.45 GB ↑ 135 ↓ 46
2017-09-15 U Секретный агент / Unlocked (2017) BDRip от ExKinoRay | Лицензия 1.46 GB ↑ 213 ↓ 52
2017-09-14 U Секретный агент / Unlocked (2017) BDRip 720p от HELLYWOOD | Лицензия 3.99 GB ↑ 191 ↓ 71
2017-09-14 U Секретный агент / Unlocked (2017) BDRip-AVC от HELLYWOOD | Лицензия 2.16 GB ↑ 401 ↓ 55
2017-09-14 U Секретный агент / Unlocked (2017) BDRip 720p от ExKinoRay | Лицензия 1К5.44 GB ↑ 226 ↓ 91
2017-09-14 U Секретный агент / Unlocked (2017) BDRip 1080p от ExKinoRay | Лицензия 11.27 GB ↑ 94 ↓ 121

Отзывы
Зарегистрируйтесь чтобы добавить комментарий.
Обратная связь
Copyleft ©