↑↓Torrent.by
Поиск
Логин: Регистрация
Пароль: Восстановить пароль
Загрузка...

Судная ночь. Начало / The First Purge (2018) BDRip 1080p от TeamHD | iTunes

Скачать sudnaya-noch-nachalo-the-first-purge-2018-bdrip-1080p-ot-teamhd-itunes.torrent
U Магнитная ссылка Размер: 9.61 GB Раздают: 740 Качают: 497 Добавлен: 2018-09-27 11:17:11
Судная ночь. Начало / The First Purge (2018) BDRip 1080p от TeamHD | iTunes

Название: Судная ночь. Начало
Оригинальное название: The First Purge
Год выхода: 2018
Жанр: Ужасы, фантастика, боевик, триллер
Режиссер: Герард МакМюррей
В ролях: И'лан Ноэль, Лекс Скотт Дэвис, Джойван Вейд, Магга, Патрик Дарро, Мариса Томей, Лорен Луна Велес, Кристен Солис, Ротими Пол, Мо

О фильме: Хотели бы вы жить в идеальном мире, где нет преступности, безработицы и войн? Единственная плата за такое счастливое будущее - это одна ночь абсолютного беззакония в году. Ночь, когда дозволено всё. Согласны поучаствовать в таком социальном эксперименте?

Страна: США
Студия: Blumhouse Productions, Perfect World Pictures, Platinum Dunes
Продолжительность: 01:37:25
Перевод: Дублированный | iTunes

Качество: BDRip 1080p
Видео: MPEG-4 AVC, 1920x804, 12.2 Mbit/s, 23.976 fps
Звук:
Аудио #01: 48 kHz, AC3, 5.1, 384 Kbps | iTunes | RUS |
Аудио #02: 48 kHz, DTS, 5.1, 1510 Kbps | Оригинал |  ENG |
Субтитры: Английские (Full,SDH,SDH Colored)

Релиз: Автор релиза:


[+] MI
General
Unique ID                   : 203656586104270118084388035986940588746 (0x9936D4EDE51C949382FDE1B8B23972CA)
Complete name               : D:Video111The.First.Purge.2018.BluRay.1080p.Rus.Eng.TeamHD.mkv
Format                      : Matroska
Format version              : Version 4 / Version 2
File size                   : 9.61 GiB
Duration                    : 1 h 37 min
Overall bit rate            : 14.1 Mb/s
Movie name                  : The First Purge (2018) TeamHD-селезень
Encoded date                : UTC 2018-09-26 18:21:21
Writing application         : mkvmerge v7.3.0 ('Nouages') 64bit built on Oct 22 2014 18:53:34
Writing library             : libebml v1.3.0 + libmatroska v1.4.1

Video
ID                          : 1
Format                      : AVC
Format/Info                 : Advanced Video Codec
Format profile              : High@L4.1
Format settings             : CABAC / 5 Ref Frames
Format settings, CABAC      : Yes
Format settings, ReFrames   : 5 frames
Codec ID                    : V_MPEG4/ISO/AVC
Duration                    : 1 h 37 min
Bit rate                    : 12.2 Mb/s
Width                       : 1 920 pixels
Height                      : 804 pixels
Display aspect ratio        : 2.40:1
Frame rate mode             : Constant
Frame rate                  : 23.976 (24000/1001) FPS
Color space                 : YUV
Chroma subsampling          : 4:2:0
Bit depth                   : 8 bits
Scan type                   : Progressive
Bits/(Pixel*Frame)          : 0.331
Stream size                 : 8.32 GiB (87%)
Title                       : selezen
Writing library             : x264 core 148 r2705 3f5ed56
Encoding settings           : cabac=1 / ref=5 / deblock=1:-2:-2 / analyse=0x3:0x133 / me=umh / subme=11 / psy=1 / psy_rd=1.20:0.05 / mixed_ref=1 / me_range=48 / chroma_me=1 / trellis=2 / 8x8dct=1 / cqm=0 / deadzone=21,11 / fast_pskip=0 / chroma_qp_offset=-3 / threads=12 / lookahead_threads=3 / sliced_threads=0 / nr=0 / decimate=0 / interlaced=0 / bluray_compat=0 / constrained_intra=0 / bframes=10 / b_pyramid=2 / b_adapt=2 / b_bias=0 / direct=3 / weightb=1 / open_gop=0 / weightp=2 / keyint=240 / keyint_min=23 / scenecut=40 / intra_refresh=0 / rc_lookahead=50 / rc=2pass / mbtree=0 / bitrate=12233 / ratetol=1.0 / qcomp=0.60 / qpmin=0 / qpmax=51 / qpstep=4 / cplxblur=20.0 / qblur=0.5 / vbv_maxrate=50000 / vbv_bufsize=62500 / nal_hrd=none / filler=0 / ip_ratio=1.40 / pb_ratio=1.30 / aq=3:0.80
Language                    : English
Default                     : Yes
Forced                      : No

Audio #1
ID                          : 2
Format                      : AC-3
Format/Info                 : Audio Coding 3
Commercial name             : Dolby Digital
Codec ID                    : A_AC3
Duration                    : 1 h 37 min
Bit rate mode               : Constant
Bit rate                    : 384 kb/s
Channel(s)                  : 6 channels
Channel layout              : L R C LFE Ls Rs
Sampling rate               : 48.0 kHz
Frame rate                  : 31.250 FPS (1536 SPF)
Bit depth                   : 16 bits
Compression mode            : Lossy
Stream size                 : 268 MiB (3%)
Title                       : iTunes
Language                    : Russian
Service kind                : Complete Main
Default                     : Yes
Forced                      : Yes

Audio #2
ID                          : 3
Format                      : DTS
Format/Info                 : Digital Theater Systems
Codec ID                    : A_DTS
Duration                    : 1 h 37 min
Bit rate mode               : Constant
Bit rate                    : 1 509 kb/s
Channel(s)                  : 6 channels
Channel layout              : C L R Ls Rs LFE
Sampling rate               : 48.0 kHz
Frame rate                  : 93.750 FPS (512 SPF)
Bit depth                   : 24 bits
Compression mode            : Lossy
Stream size                 : 1.03 GiB (11%)
Title                       : Original
Language                    : English
Default                     : No
Forced                      : No

Text #1
ID                          : 4
Format                      : UTF-8
Codec ID                    : S_TEXT/UTF8
Codec ID/Info               : UTF-8 Plain Text
Duration                    : 1 h 30 min
Bit rate                    : 59 b/s
Count of elements           : 1244
Stream size                 : 39.4 KiB (0%)
Title                       : Full
Language                    : English
Default                     : No
Forced                      : No

Text #2
ID                          : 5
Format                      : UTF-8
Codec ID                    : S_TEXT/UTF8
Codec ID/Info               : UTF-8 Plain Text
Duration                    : 1 h 33 min
Bit rate                    : 69 b/s
Count of elements           : 1496
Stream size                 : 47.2 KiB (0%)
Title                       : SDH
Language                    : English
Default                     : No
Forced                      : No

Text #3
ID                          : 6
Format                      : UTF-8
Codec ID                    : S_TEXT/UTF8
Codec ID/Info               : UTF-8 Plain Text
Duration                    : 1 h 36 min
Bit rate                    : 138 b/s
Count of elements           : 1880
Stream size                 : 98.2 KiB (0%)
Title                       : SDH Colored
Language                    : English
Default                     : No
Forced                      : No

Menu
00:00:00.000                : en:Chapter 1
00:06:25.635                : en:Chapter 2
00:11:59.802                : en:Chapter 3
00:16:18.769                : en:Chapter 4
00:21:18.110                : en:Chapter 5
00:25:56.388                : en:Chapter 6
00:30:54.144                : en:Chapter 7
00:35:31.212                : en:Chapter 8
00:38:41.110                : en:Chapter 9
00:43:02.455                : en:Chapter 10
00:48:34.411                : en:Chapter 11
00:53:35.087                : en:Chapter 12
00:55:59.565                : en:Chapter 13
00:59:13.049                : en:Chapter 14
01:05:25.713                : en:Chapter 15
01:09:31.793                : en:Chapter 16
01:13:23.733                : en:Chapter 17
01:19:47.533                : en:Chapter 18
01:24:50.043                : en:Chapter 19
01:29:54.931                : en:Chapter 20



Скриншоты:
[+] Всего файлов в раздаче - 1:
The.First.Purge.2018.BluRay.1080p.Rus.Eng.TeamHD.mkv9.61 GB

Текущая раздача:
ДатаКомментарии    РазмерПиры
2018-09-27 U Судная ночь. Начало / The First Purge (2018) BDRip 1080p от TeamHD | iTunes 9.61 GB ↑ 740 ↓ 497

Показать еще раздачи по запросу судная:
2018-09-29 U Судная ночь. Начало / The First Purge (2018) HDRip от Scarabey | iTunes 1.40 GB ↑ 118 ↓ 28
2018-09-28 U Судная ночь. Начало / The First Purge (2018) BDRip | iTunes 743.62 MB ↑ 110 ↓ 29
2018-09-27 U Судная ночь. Начало / The First Purge (2018) BDRemux 1080p от TeamHD | iTunes 23.78 GB ↑ 63 ↓ 47
2018-09-27 U Судная ночь. Начало / The First Purge (2018) BDRip-AVC от HELLYWOOD | iTunes 1.42 GB ↑ 109 ↓ 50
2018-09-27 U Судная ночь. Начало / The First Purge (2018) BDRip-AVC от HELLYWOOD | iTunes 2.14 GB ↑ 137 ↓ 64
2018-09-27 U Судная ночь. Начало / The First Purge (2018) BDRip от ExKinoRay | iTunes 1.42 GB ↑ 403 ↓ 123
2018-09-27 U Судная ночь. Начало / The First Purge (2018) BDRip 720p от TeamHD | iTunes 4.96 GB ↑ 645 ↓ 326

Отзывы
Зарегистрируйтесь чтобы добавить комментарий.
Обратная связь
Copyleft ©