↑↓Torrent.by
Поиск
Логин: Регистрация
Пароль: Восстановить пароль
Загрузка...

Шоу Мистико / O Grande Circo Místico (2018) WEB-DLRip | D | Line

Скачать shou-mistiko-o-grande-circo-m-stico-2018-web-dlrip-d-line.torrent
U Магнитная ссылка Размер: 1.46 GB Раздают: 154 Качают: 68 Добавлен: 2018-09-27 11:18:40
Шоу Мистико / O Grande Circo Místico (2018) WEB-DLRip | D | Line

Шоу Мистико / Великий загадочный цирк / O Grande Circo Místico

Страна: Бразилия  Португалия  Франция
Производство: Fado Filmes, Globo Filmes, Milonga Productions, Luz Mágica Produções
Год выпуска: 2018
Жанр:  драма
Продолжительность: 01:44:50
Режиссер: Карлус Диегис
Авторы сценария: Карлус Диегис, Джордж Мора, Хорхе де Лима

В ролях: Венсан Кассель, Мариана Шименес, Нуно Лопеш, Антонио Фагундес, Албану Жерониму, Давид Огродник, Антонио де ла Крус, Катрин Муше

Описание: В мае 1910 года, когда над Землей пронеслась комета Галлея, молодой красавец доктор Фред Кипс без ума влюбился в акробатку Беатрис, вопреки воле родителей взял ее в жены и купил для нее цирк, назвав его «Гранд Мистико». Так начинается эта наполненная волшебством и эротикой история, в которую вовлечены фокусник и секс-гигант Жан-Поль, звероподобный силач Рудольфо, близняшки Мария и Елена, зарабатывающие интимными услугами и полетами под куполом цирка, и прочие удивительные герои. Идут годы — Первая мировая война, Вторая, человек ступает на Луну, рушится берлинская стена, комета Галлея пронеслась над Землей снова… И только в «Гранд Мистико», как и сто лет назад, каждый вечер вечно юный загадочный шпрехшталмейстер Селяви объявляет о начале представления. Шоу продолжается…

Перевод: Профессиональный (дублированный) | чистый звук
Субтитры: нет

Качество: WEB-DLRip
Формат: АVI
Видео кодек: XviD
Аудио кодек: АС3
Видео: 720x320 (2.25:1), 24.000 fps, XviD build 73 ~1 794 kbps avg
Аудио: 48 kHz, AC3 Dolby Digital, 2/0 (L,R) ch, ~192 kbps

Дата премьеры (мир): 12 мая 2018
Дата премьеры (РФ): 23 августа 2018, «Cinema Prestige»

Семпл


[+] Media Info
General
Формат                                   : AVI
Формат/Информация                        : Audio Video Interleave
Размер файла                             : 1,46 Гбайт
Продолжительность                        : 1 ч. 44 м.
Общий поток                              : 1995 Кбит/сек
Программа кодирования                    : VirtualDubMod 1.5.10.3 | (build 2550/release)
Библиотека кодирования                   : VirtualDubMod build 2550/release

Видео
Идентификатор                            : 0
Формат                                   : MPEG-4 Visual
Профиль формата                          : Advanced Simple@L5
Настройки формата                        : BVOP1 / Custom Matrix
Параметр BVOP формата                    : 1
Параметр QPel формата                    : Нет
Параметр GMC формата                     : Без точки перехода
Параметр матрицы формата                 : Выборочная
Идентификатор кодека                     : XVID
Идентификатор кодека/Подсказка           : XviD
Продолжительность                        : 1 ч. 44 м.
Битрейт                                  : 1794 Кбит/сек
Ширина                                   : 720 пикселей
Высота                                   : 320 пикселей
Соотношение сторон                       : 2,25:1
Частота кадров                           : 24,000 кадра/сек
Цветовое пространство                    : YUV
Субдискретизация насыщенности            : 4:2:0
Битовая глубина                          : 8 бит
Тип развёртки                            : Прогрессивная
Метод сжатия                             : С потерями
Бит/(Пиксели*Кадры)                      : 0.324
Размер потока                            : 1,31 Гбайт (90%)
Библиотека кодирования                   : XviD 73

Аудио
Идентификатор                            : 1
Формат                                   : AC-3
Формат/Информация                        : Audio Coding 3
Коммерческое название                    : Dolby Digital
Идентификатор кодека                     : 2000
Продолжительность                        : 1 ч. 44 м.
Вид битрейта                             : Постоянный
Битрейт                                  : 192 Кбит/сек
Каналы                                   : 2 канала
Channel layout                           : L R
Частота                                  : 48,0 КГц
Частота кадров                           : 31,250 кадров/сек (1536 SPF)
Битовая глубина                          : 16 бит
Метод сжатия                             : С потерями
Размер потока                            : 144 Мбайт (10%)
Выравнивание                             : Разделение по промежуткам
Продолжительность промежутка             : 42  мс. (1,00 видеокадр)
Время предзагрузки промежутка            : 500  мс.



Скриншоты:
[+] Всего файлов в раздаче - 1:
Шоу Мистико_2018_WEB-DLRip.avi1.46 GB

Текущая раздача:
ДатаКомментарии    РазмерПиры
2018-09-27 U Шоу Мистико / O Grande Circo Místico (2018) WEB-DLRip | D | Line 1.46 GB ↑ 154 ↓ 68

Похожие раздачи по запросу - мистико:
2018-09-26 U Шоу Мистико / O Grande Circo Mistico (2018) WEB-DLRip 720p | D 3.01 GB ↑ 189 ↓ 99

Отзывы
Зарегистрируйтесь чтобы добавить комментарий.
Обратная связь
Copyleft ©