↑↓Torrent.by
Поиск
Логин: Регистрация
Пароль: Восстановить пароль
Загрузка...

Монстры на каникулах 3: Море зовёт / Hotel Transylvania 3: Summer Vacation (2018) BDRemux 1080p | iTunes

Скачать monstry-na-kanikulah-3-more-zovet-hotel-transylvania-summer-vacation-2018-bdremux-1080p-itunes.torrent
U Магнитная ссылка Размер: 18.86 GB Раздают: 140 Качают: 107 Добавлен: 2018-09-27 20:47:53
Монстры на каникулах 3: Море зовёт / Hotel Transylvania 3: Summer Vacation (2018) BDRemux 1080p | iTunes

«Любишь ужасы? Проведи отпуск с семьёй!»

Название: Монстры на каникулах 3: Море зовёт
Оригинальное название: Hotel Transylvania 3: Summer Vacation
Год выхода: 2018
Жанр: Мультфильм, фэнтези, комедия, приключения, семейный
Режиссер: Генндий Тартаковский
Роли озвучивают: Мэл Брукс, Адам Сэндлер, Селена Гомес, Энди Сэмберг, Кэтрин Хан, Фрэн Дрешер, Стив Бушеми, Дэвид Спейд, Тара Стронг, Кигэн-Майкл Ки

О фильме:
На этот раз Дракула вместе со своими друзьями отправляется в круиз на шикарном лайнере. Развлечения там на любой вкус: от монстробаскетбола и экзотических экскурсий, до лунных ванн. Неожиданно Дракула влюбляется в капитана корабля — загадочную и прекрасную Эрику, и его дочка Мэвис понимает, что поездка может превратиться в кошмар: ведь Эрика хранит ужасный секрет, который ставит под угрозу существование всех монстров!

Страна: США
Студия: Columbia Pictures, Media Rights Capital, Sony Pictures Animation
Продолжительность: 01:37:23
Перевод:
Профессиональный (полное дублирование) | iTunes

Файл
Качество: Blu-Ray Remux 1080p
Формат: MKV
Кодек: MPEG-4 AVC Video
Видео: 1920x1080 (16:9), 23.976 fps, MPEG-4 AVC ~ 24,9 Мbps avg, 0.501 bit/pixel
Аудио: AC3, 48 kHz, 6 ch, ~384.00 kbps avg | русский | iTunes
Аудио: AAC-LC, 48 kHz, 2 ch, ~157.00 kbps avg | украинский |
Аудио: DTS-HD MA, 48 kHz, 6 ch, ~2278.00 kbps avg | английский | Оригинал

Субтитры: Русские (полные, форсированные), украинские (полные), английские (full,SDH)
Семпл


[+] Инфо-файл
Общее
Уникальный идентификатор                 : 86666143276927316809741087700659341965 (0x41334AC3CC9932F886BE3CB300BA0A8D)
Полное имя                               : Hotel.transylvania.3.2018.1080p.BluRay.REMUX.AVC.DD5.1.Rus.Ukr.Eng.mkv
Формат                                   : Matroska
Версия формата                           : Version 4 / Version 2
Размер файла                             : 18,9 Гбайт
Продолжительность                        : 1 ч. 37 м.
Режим общего битрейта                    : Переменный
Общий поток                              : 27,7 Мбит/сек
Название фильма                          : Монстры на каникулах 3: Море зовёт / Hotel Transylvania 3: Summer Vacation (2018)
Дата кодирования                         : UTC 2018-09-27 07:23:12
Программа кодирования                    : mkvmerge v27.0.0 ('Metropolis') 64-bit
Библиотека кодирования                   : libebml v1.3.6 + libmatroska v1.4.9

Видео
Идентификатор                            : 1
Формат                                   : AVC
Формат/Информация                        : Advanced Video Codec
Профиль формата                          : High@L4.1
Настройки формата                        : CABAC / 2 Ref Frames
Параметр CABAC формата                   : Да
Параметр RefFrames формата               : 2 кадра
Параметр GOP формата                     : M=1, N=10
Идентификатор кодека                     : V_MPEG4/ISO/AVC
Продолжительность                        : 1 ч. 37 м.
Вид битрейта                             : Переменный
Битрейт                                  : 24,9 Мбит/сек
Ширина                                   : 1920 пикселей
Высота                                   : 1080 пикселей
Соотношение сторон                       : 16:9
Режим частоты кадров                     : Постоянный
Частота кадров                           : 23,976 (24000/1001) кадра/сек
Цветовое пространство                    : YUV
Субдискретизация насыщенности            : 4:2:0
Битовая глубина                          : 8 бит
Тип развёртки                            : Прогрессивная
Бит/(Пиксели*Кадры)                      : 0.501
Размер потока                            : 16,9 Гбайт (90%)
Заголовок                                : Hotel.transylvania.3.2018.1080p.BluRay.REMUX.AVC.DD5.1.Rus.Ukr.Eng
Default                                  : Да
Forced                                   : Нет

Аудио #1
Идентификатор                            : 2
Формат                                   : AC-3
Формат/Информация                        : Audio Coding 3
Идентификатор кодека                     : A_AC3
Продолжительность                        : 1 ч. 37 м.
Вид битрейта                             : Постоянный
Битрейт                                  : 384 Кбит/сек
Каналы                                   : 6 каналов
Расположение каналов                     : Front: L C R, Side: L R, LFE
Частота                                  : 48,0 КГц
Частота кадров                           : 31,250 кадров/сек (1536 SPF)
Битовая глубина                          : 16 бит
Метод сжатия                             : С потерями
Размер потока                            : 267 Мбайт (1%)
Заголовок                                : iTunes
Язык                                     : Russian
Default                                  : Да
Forced                                   : Да

Аудио #2
Идентификатор                            : 3
Формат                                   : AAC
Формат/Информация                        : Advanced Audio Codec
Профиль формата                          : LC
Идентификатор кодека                     : A_AAC-2
Продолжительность                        : 1 ч. 37 м.
Битрейт                                  : 157 Кбит/сек
Каналы                                   : 2 канала
Расположение каналов                     : Front: L R
Частота                                  : 48,0 КГц
Частота кадров                           : 46,875 кадров/сек (1024 SPF)
Метод сжатия                             : С потерями
Размер потока                            : 109 Мбайт (1%)
Язык                                     : Ukrainian
Default                                  : Нет
Forced                                   : Нет

Аудио #3
Идентификатор                            : 4
Формат                                   : DTS
Формат/Информация                        : Digital Theater Systems
Профиль формата                          : MA / Core
Идентификатор кодека                     : A_DTS
Продолжительность                        : 1 ч. 37 м.
Вид битрейта                             : Переменный / Постоянный
Битрейт                                  : 2278 Кбит/сек / 1509 Кбит/сек
Каналы                                   : 6 каналов
Расположение каналов                     : Front: L C R, Side: L R, LFE
Частота                                  : 48,0 КГц
Частота кадров                           : 93,750 кадра/сек (512 SPF)
Битовая глубина                          : 16 бит
Метод сжатия                             : Без потерь / Lossy
Размер потока                            : 1,55 Гбайт (8%)
Заголовок                                : Original
Язык                                     : English
Default                                  : Нет
Forced                                   : Нет

Текст #1
Идентификатор                            : 5
Формат                                   : UTF-8
Идентификатор кодека                     : S_TEXT/UTF8
Идентификатор кодека/Информация          : UTF-8 Plain Text
Продолжительность                        : 1 ч. 36 м.
Битрейт                                  : 0 бит/сек
ElementCount                             : 5
Размер потока                            : 171 байт (0%)
Заголовок                                : FORCED
Язык                                     : Russian
Default                                  : Да
Forced                                   : Да

Текст #2
Идентификатор                            : 6
Формат                                   : UTF-8
Идентификатор кодека                     : S_TEXT/UTF8
Идентификатор кодека/Информация          : UTF-8 Plain Text
Продолжительность                        : 1 ч. 36 м.
Битрейт                                  : 76 бит/сек
ElementCount                             : 1118
Размер потока                            : 54,4 Кбайт (0%)
Заголовок                                : FULL
Язык                                     : Russian
Default                                  : Нет
Forced                                   : Нет

Текст #3
Идентификатор                            : 7
Формат                                   : UTF-8
Идентификатор кодека                     : S_TEXT/UTF8
Идентификатор кодека/Информация          : UTF-8 Plain Text
Продолжительность                        : 1 ч. 36 м.
Битрейт                                  : 71 бит/сек
ElementCount                             : 1118
Размер потока                            : 50,4 Кбайт (0%)
Заголовок                                : FULL
Язык                                     : Ukrainian
Default                                  : Нет
Forced                                   : Нет

Текст #4
Идентификатор                            : 8
Формат                                   : UTF-8
Идентификатор кодека                     : S_TEXT/UTF8
Идентификатор кодека/Информация          : UTF-8 Plain Text
Продолжительность                        : 1 ч. 30 м.
Битрейт                                  : 52 бит/сек
ElementCount                             : 1295
Размер потока                            : 35,1 Кбайт (0%)
Заголовок                                : FULL
Язык                                     : English
Default                                  : Нет
Forced                                   : Нет

Текст #5
Идентификатор                            : 9
Формат                                   : UTF-8
Идентификатор кодека                     : S_TEXT/UTF8
Идентификатор кодека/Информация          : UTF-8 Plain Text
Продолжительность                        : 1 ч. 30 м.
Битрейт                                  : 65 бит/сек
ElementCount                             : 1629
Размер потока                            : 43,8 Кбайт (0%)
Заголовок                                : SDH
Язык                                     : English
Default                                  : Нет
Forced                                   : Нет

Меню
00:00:00.000                             : en:1
00:04:28.935                             : en:2
00:09:34.824                             : en:3
00:16:02.044                             : en:4
00:20:03.075                             : en:5
00:24:34.930                             : en:6
00:31:12.535                             : en:7
00:36:49.205                             : en:8
00:44:04.723                             : en:9
00:49:57.699                             : en:10
00:54:49.740                             : en:11
01:00:34.875                             : en:12
01:06:12.003                             : en:13
01:10:32.262                             : en:14
01:13:46.371                             : en:15
01:24:56.541                             : en:16



Скриншоты:
[+] Всего файлов в раздаче - 1:
Hotel.transylvania.3.2018.1080p.BluRay.REMUX.AVC.DD5.1.Rus.Ukr.Eng.mkv18.86 GB

Текущая раздача:
ДатаКомментарии    РазмерПиры
2018-09-27 U Монстры на каникулах 3: Море зовёт / Hotel Transylvania 3: Summer Vacation (2018) BDRemux 1080p | iTunes 18.86 GB ↑ 140 ↓ 107

Показать еще раздачи по запросу монстры:
2018-11-11 U Монстры на каникулах 3: Море зовёт / Hotel Transylvania 3: Summer Vacation (2018) BDRip 1080p от qqss44 & MegaPeer | Лицензия 5.54 GB ↑ 496 ↓ 27
2018-11-11 U Монстры на каникулах 3: Море зовёт / Hotel Transylvania 3: Summer Vacation (2018) BDRip 1080p от селезень | Лицензия 13.35 GB ↑ 62 ↓ 14
2018-11-11 U Монстры на каникулах 3: Море зовёт / Hotel Transylvania 3: Summer Vacation (2018) BDRip 720p от селезень | Лицензия 5.15 GB ↑ 63 ↓ 20
2018-11-10 U Монстры на каникулах 3: Море зовёт / Hotel Transylvania 3: Summer Vacation (2018) BDRip от MegaPeer | Лицензия 1.46 GB ↑ 193 ↓ 68
2018-10-08 U Монстры на каникулах 3: Море зовёт / Hotel Transylvania 3: Summer Vacation (2018) UHD BDRemux 2160p от TeamHD | 4K | HDR | iTunes 38.12 GB ↑ 41 ↓ 15
2018-09-30 U Монстры на каникулах 3: Море зовёт / Hotel Transylvania 3: Summer Vacation (2018) BDRip 1080p от qqss44 & MegaPeer | iTunes 5.36 GB ↑ 429 ↓ 168
2018-09-30 U Монстры на каникулах 3: Море зовёт / Hotel Transylvania 3: Summer Vacation (2018) HDRip от Scarabey | iTunes 747.04 MB ↑ 128 ↓ 16

Отзывы
Зарегистрируйтесь чтобы добавить комментарий.
Обратная связь
Copyleft ©