↑↓Torrent.by
Поиск
Логин: Регистрация
Пароль: Восстановить пароль
Загрузка...

Убрать из друзей 2 / Unfriended: Dark Web (2018) HDRip-AVC | L2

Скачать ubrat-iz-druzey-2-unfriended-dark-web-2018-hdrip-avc-l2.torrent
U Магнитная ссылка Размер: 1.10 GB Раздают: 97 Качают: 16 Добавлен: 2018-09-29 12:04:00
Убрать из друзей 2 / Unfriended: Dark Web (2018) HDRip-AVC | L2

Название: Убрать из друзей 2
Оригинальное название: Unfriended: Dark Web
Год выхода: 2018
Жанр: Ужасы
Режиссер: Стивен Саско
В ролях: Бетти Гэбриел, Ребекка Риттенхаус, Колин Вуделл, Челси Элден, Эндрю Лииз, Alexa Mansour, Стефани Ногерас, Дуглас Тейт, Коннор Дель Рио, Savira Windyani и другие
О фильме:
Матиас приобрел ноутбук и обнаружил там любопытные скрытые файлы. Во время коллективного видеочата парень спешит поделиться новостью с друзьями, когда к их разговору присоединяется нечто злое и очень агрессивное.

Страна: США, Bazelevs Production, Blumhouse Productions, Universal Pictures
Продолжительность: 01:33:23
Перевод: Любительский (двухголосый закадровый) | HiWay Grope

Файл
Кодек: MPEG-4 AVC/x.264
Качество: HDRip-AVC
Видео: 720x384, 23.976 fps, ~1494 kbps, 0.225 bit/pixel
Звук:
Аудио rus: AC3, 48 kHz, 2 ch, 192 Kbps
Субтитры: отсутствуют

Реклама: присутствует

Семпл

Релиз от: HiWay Grope


[+] MediaInfo:

General
Unique ID                                : 69326337836785260956871935821126355141 (0x3427C459F2022BF403A6ABD83A1CC8C5)
Complete name                            : D:Unfriended.Dark.Web.2018.HDRip-AVC.HiWayGropeUnfriended.Dark.Web.2018.HDRip-AVC.HiWayGrope.mkv
Format                                   : Matroska
Format version                           : Version 4 / Version 2
File size                                : 1.10 GiB
Duration                                 : 1 h 33 min
Overall bit rate                         : 1 688 kb/s
Encoded date                             : UTC 2018-09-28 13:43:53
Writing application                      : mkvmerge v25.0.0 ('Prog Noir') 64-bit
Writing library                          : libebml v1.3.6 + libmatroska v1.4.9

Video
ID                                       : 1
Format                                   : AVC
Format/Info                              : Advanced Video Codec
Format profile                           : Main@L3.1
Format settings                          : CABAC / 4 Ref Frames
Format settings, CABAC                   : Yes
Format settings, RefFrames               : 4 frames
Codec ID                                 : V_MPEG4/ISO/AVC
Duration                                 : 1 h 33 min
Bit rate                                 : 1 494 kb/s
Width                                    : 720 pixels
Height                                   : 384 pixels
Display aspect ratio                     : 1.85:1
Frame rate mode                          : Constant
Frame rate                               : 23.976 (24000/1001) FPS
Standard                                 : NTSC
Color space                              : YUV
Chroma subsampling                       : 4:2:0
Bit depth                                : 8 bits
Scan type                                : Progressive
Bits/(Pixel*Frame)                       : 0.225
Stream size                              : 998 MiB (89%)
Language                                 : English
Default                                  : Yes
Forced                                   : No
Color range                              : Limited
Color primaries                          : BT.601 NTSC
Transfer characteristics                 : BT.601
Matrix coefficients                      : BT.601

Audio
ID                                       : 2
Format                                   : AC-3
Format/Info                              : Audio Coding 3
Codec ID                                 : A_AC3
Duration                                 : 1 h 33 min
Bit rate mode                            : Constant
Bit rate                                 : 192 kb/s
Channel(s)                               : 2 channels
Channel positions                        : Front: L R
Sampling rate                            : 48.0 kHz
Frame rate                               : 31.250 FPS (1536 SPF)
Bit depth                                : 16 bits
Compression mode                         : Lossy
Stream size                              : 128 MiB (11%)
Language                                 : Russian
Service kind                             : Complete Main
Default                                  : Yes
Forced                                   : No




Скриншоты:
[+] Всего файлов в раздаче - 1:
Unfriended.Dark.Web.2018.HDRip-AVC.HiWayGrope.mkv1.10 GB

Текущая раздача:
ДатаКомментарии    РазмерПиры
2018-09-29 U Убрать из друзей 2 / Unfriended: Dark Web (2018) HDRip-AVC | L2 1.10 GB ↑ 97 ↓ 16

Показать еще раздачи по запросу убрать:
2018-05-27 U Убрать перископ / Down Periscope (1996) WEB-DLRip-AVC | P2, A 745.81 MB ↑ 66 ↓ 10
2018-05-26 U Убрать перископ / Down Periscope (1996) WEB-DL 1080p | P2, A 8.14 GB ↑ 70 ↓ 37
2017-10-26 U Убрать перископ / Down Periscope (1996) HDRip от Scarabey | P 1.45 GB ↑ 195 ↓ 31
2017-10-21 U Adguard Premium 6.2.431.2165 RC [2017.Ml\Rus] - Самый лучший способ убрать рекламу! 52.80 MB ↑ 218 ↓ 8
2017-10-06 U Adguard Premium 6.2.424.2123 Beta [2017.Ml\Rus] - Самый лучший способ убрать рекламу! 53.14 MB ↑ 101 ↓ 21
2016-12-25 U Adguard 6.1.298.1564 RC [Multi/Ru] - Самый лучший способ убрать рекламу! 46.29 MB ↑ 1467 ↓ 33
2016-12-02 U Adguard 6.1.296.1549 [Multi/Ru] - Самый лучший способ убрать рекламу! 75.05 MB ↑ 601 ↓ 46

Отзывы
Зарегистрируйтесь чтобы добавить комментарий.
Обратная связь
Copyleft ©