↑↓Torrent.by
Поиск
Логин: Регистрация
Пароль: Восстановить пароль
Загрузка...

Выжившие / Hostile (2017) BDRip 1080p | IVI

Скачать vyzhivshie-hostile-2017-bdrip-1080p-ivi.torrent
U Магнитная ссылка Размер: 6.78 GB Раздают: 171 Качают: 46 Добавлен: 2018-09-30 05:10:05
Выжившие / Hostile (2017) BDRip 1080p | IVI

Название: Выжившие
Оригинальное название: Hostile
Год выхода: 2017
Жанр: ужасы, драма
Режиссер: Матьё Тури
В ролях: Бриттани Эшворт, Грегори Фетусси, Хавьер Ботет, Джей Бенедикт, Дэвид Гасман, Карл Гаррисон, Ричард Мейман, Мо Арусси, Лаура Д’Ариста, Атон

О фильме:
После апокалипсиса, когда большая часть населения Земли была уничтожена, появились ОНИ. Их назвали Выжившими. Никто не знает, живы они или мертвы, из этого мира или нет. Но теперь это их мир. Они здесь охотники, а люди - их добыча. Джулиет одна из своей группы рискует отправиться в покинутый людьми город на поиски пищи. Её путь будет долгим, он лежит через неизведанные опасные земли, и до наступления темноты она не успеет вернуться в лагерь.

 
Страна: Франция
Студия: Full Time Films, H Films, Title Media
Продолжительность: 01:23:13
Перевод: Профессиональный (многоголосый, закадровый) | IVI

Файл
Качество: BDRip 1080p | IVI
Видео: AVC/H.264, 1920x808, ~9769 Кbps, 23,976 fps
Звук:
Аудио 1: AC3, 2 ch, 384 Kbps - Русский (MVO IVI)
Аудио 2: DTS, 6 ch, 1509 Kbps - Английский
Субтитры: Английские (SDH)


[+] Mediainfo
Общее
Уникальный идентификатор                 : 201577837844758810635633464640527616926 (0x97A67ABA27C67A18ED850CD36DB74B9E)
Полное имя                               : Hostile.2017.BDRip.1080p.mkv
Формат                                   : Matroska
Версия формата                           : Version 4
Размер файла                             : 6,78 Гбайт
Продолжительность                        : 1 ч. 23 м.
Общий поток                              : 11,7 Мбит/сек
Название фильма                          : Hostile.2017.BDRip.1080p
Дата кодирования                         : UTC 2018-09-29 09:58:15
Программа кодирования                    : mkvmerge v23.0.0 ('The Bride Said No') 64-bit
Библиотека кодирования                   : libebml v1.3.6 + libmatroska v1.4.9

Видео
Идентификатор                            : 1
Формат                                   : AVC
Формат/Информация                        : Advanced Video Codec
Профиль формата                          : High@L4.1
Настройки формата                        : CABAC / 5 Ref Frames
Параметр CABAC формата                   : Да
Параметр RefFrames формата               : 5 кадров
Идентификатор кодека                     : V_MPEG4/ISO/AVC
Продолжительность                        : 1 ч. 23 м.
Битрейт                                  : 9769 Кбит/сек
Ширина                                   : 1920 пикселей
Высота                                   : 808 пикселей
Соотношение сторон                       : 2,40:1
Режим частоты кадров                     : Постоянный
Частота кадров                           : 23,976 (24000/1001) кадра/сек
Цветовое пространство                    : YUV
Субдискретизация насыщенности            : 4:2:0
Битовая глубина                          : 8 бит
Тип развёртки                            : Прогрессивная
Бит/(Пиксели*Кадры)                      : 0.263
Размер потока                            : 5,67 Гбайт (84%)
Библиотека кодирования                   : x264 core 155 r2901 7d0ff22
Настройки программы                      : cabac=1 / ref=5 / deblock=1:-2:-2 / analyse=0x3:0x113 / me=umh / subme=8 / psy=1 / psy_rd=1.00:0.00 / mixed_ref=1 / me_range=16 / chroma_me=1 / trellis=2 / 8x8dct=1 / cqm=0 / deadzone=21,11 / fast_pskip=1 / chroma_qp_offset=-2 / threads=25 / lookahead_threads=4 / sliced_threads=0 / nr=0 / decimate=1 / interlaced=0 / bluray_compat=0 / constrained_intra=0 / bframes=3 / b_pyramid=2 / b_adapt=2 / b_bias=0 / direct=3 / weightb=1 / open_gop=0 / weightp=2 / keyint=240 / keyint_min=24 / scenecut=40 / intra_refresh=0 / rc_lookahead=50 / rc=2pass / mbtree=1 / bitrate=9769 / ratetol=1.0 / qcomp=0.60 / qpmin=0 / qpmax=69 / qpstep=4 / cplxblur=20.0 / qblur=0.5 / ip_ratio=1.40 / aq=1:1.00
Язык                                     : English
Default                                  : Да
Forced                                   : Нет

Аудио #1
Идентификатор                            : 2
Формат                                   : AC-3
Формат/Информация                        : Audio Coding 3
Коммерческое название                    : Dolby Digital
Идентификатор кодека                     : A_AC3
Продолжительность                        : 1 ч. 23 м.
Вид битрейта                             : Постоянный
Битрейт                                  : 384 Кбит/сек
Каналы                                   : 2 канала
Channel layout                           : L R
Частота                                  : 48,0 КГц
Частота кадров                           : 31,250 кадров/сек (1536 SPF)
Битовая глубина                          : 16 бит
Метод сжатия                             : С потерями
Размер потока                            : 229 Мбайт (3%)
Заголовок                                : MVO | IVI
Язык                                     : Russian
ServiceKind                              : Complete Main
Default                                  : Да
Forced                                   : Нет

Аудио #2
Идентификатор                            : 3
Формат                                   : DTS
Формат/Информация                        : Digital Theater Systems
Идентификатор кодека                     : A_DTS
Продолжительность                        : 1 ч. 23 м.
Вид битрейта                             : Постоянный
Битрейт                                  : 1509 Кбит/сек
Каналы                                   : 6 каналов
Channel layout                           : C L R Ls Rs LFE
Частота                                  : 48,0 КГц
Частота кадров                           : 93,750 кадра/сек (512 SPF)
Битовая глубина                          : 24 бит
Метод сжатия                             : С потерями
Размер потока                            : 898 Мбайт (13%)
Язык                                     : English
Default                                  : Нет
Forced                                   : Нет

Текст
Идентификатор                            : 4
Формат                                   : UTF-8
Идентификатор кодека                     : S_TEXT/UTF8
Идентификатор кодека/Информация          : UTF-8 Plain Text
Продолжительность                        : 1 ч. 19 м.
Битрейт                                  : 40 бит/сек
ElementCount                             : 975
Размер потока                            : 23,4 Кбайт (0%)
Заголовок                                : SDH
Язык                                     : English
Default                                  : Нет
Forced                                   : Нет

Меню
00:00:00.000                             : en:00:00:00.000
00:07:11.097                             : en:00:07:11.097
00:15:20.920                             : en:00:15:20.920
00:23:37.166                             : en:00:23:37.166
00:28:50.437                             : en:00:28:50.437
00:37:45.472                             : en:00:37:45.472
00:42:48.065                             : en:00:42:48.065
00:51:23.914                             : en:00:51:23.914
00:57:39.164                             : en:00:57:39.164
01:04:27.822                             : en:01:04:27.822
01:10:09.914                             : en:01:10:09.914
01:19:26.762                             : en:01:19:26.762



Скриншоты:
[+] Всего файлов в раздаче - 1:
Hostile.2017.BDRip.1080p.mkv6.78 GB

Текущая раздача:
ДатаКомментарии    РазмерПиры
2018-09-30 U Выжившие / Hostile (2017) BDRip 1080p | IVI 6.78 GB ↑ 171 ↓ 46

Похожие раздачи по запросу - выжившие:
2018-09-30 U Выжившие / Hostile (2017) HDRip от MegaPeer | P 1.46 GB ↑ 286 ↓ 54
2018-09-29 U Выжившие / Hostile (2017) WEBRip 1080p | IVI 3.15 GB ↑ 402 ↓ 175

Отзывы
Зарегистрируйтесь чтобы добавить комментарий.
Обратная связь
Copyleft ©