↑↓Torrent.by
Поиск
Логин: Регистрация
Пароль: Восстановить пароль
Загрузка...

Проклятие: Кукла ведьмы / Curse of the Witch's Doll (2018) WEB-DL 1080p | D | Line

Скачать proklyatie-kukla-vedmy-curse-of-the-witch-s-doll-2018-web-dl-1080p-d-line.torrent
U Магнитная ссылка Размер: 3.67 GB Раздают: 134 Качают: 30 Добавлен: 2018-09-30 05:10:41
Проклятие: Кукла ведьмы / Curse of the Witch's Doll (2018) WEB-DL 1080p | D | Line

Название: Проклятие: Кукла ведьмы
Оригинальное название: Curse of the Witch's Doll
Год выхода: 2018
Жанр: Ужасы
Режиссер: Лоуренс Фаулер
В ролях: Хелен Кревел (Adeline Gray), Филип Риду (Arthur Harper), Лайла Уоттс (Chloe Gray), Нил Хоббс (Detective Nolan), Клер Карреньо (The Witch), Мишель Арчер (Doris), Роберт Анселл (James Gray), Уильям Фрейзер (PC Jones), Лаура Джейнс (Emma)

О фильме:
После исчезновения дочери Аделина Грей сталкивается с полным безразличием новых соседей. Никто не верит в то, что дочь еще можно спасти. Она начинает подозревать, что инцидент связан с ужасной куклой, в которой заключено настоящее зло — в ней обитает дух ведьмы.

Страна: Великобритания
Продолжительность: 01:38:48
Перевод: Дублированный | Line [Официальный звук]

Файл
Качество: WEB-DL 1080p
Формат: MKV
Видео кодек: AVC
Аудио кодек: AC3
Видео: 1920x808 (2.40:1), 24.000 fps, AVC, 4 503 Kbps
Звук: AC3, 320 Kbps, 48.0 KHz, 2 ch [rus]
AC3, 384 Kbps, 48.0 KHz, 6 ch [eng]
Субтитры: Нет

Релиз без рекламы!

Релиз от: Tapochek


[+] МедиаИнфо
General
Unique ID                                : 173318949553248107353241975592823598509 (0x826403F6FC07125BA4FE4E534454ADAD)
Complete name                            : Curse.of.the.Witchs.Doll.2018.1080p.WEB-DL.Tapochek.mkv
Format                                   : Matroska
Format version                           : Version 4 / Version 2
File size                                : 3.67 GiB
Duration                                 : 1h 38mn
Overall bit rate                         : 5 313 Kbps
Movie name                               : Tapochek
Encoded date                             : UTC 2018-09-29 07:44:44
Writing application                      : mkvmerge v27.0.0 ('Metropolis') 64-bit
Writing library                          : libebml v1.3.6 + libmatroska v1.4.9
DURATION                                 : 01:38:48.384000000
NUMBER_OF_FRAMES                         : 185262
NUMBER_OF_BYTES                          : 284562432
_STATISTICS_WRITING_APP                  : mkvmerge v27.0.0 ('Metropolis') 64-bit
_STATISTICS_WRITING_DATE_UTC             : 2018-09-29 07:44:44
_STATISTICS_TAGS                         : BPS DURATION NUMBER_OF_FRAMES NUMBER_OF_BYTES

Video
ID                                       : 2
Format                                   : AVC
Format/Info                              : Advanced Video Codec
Format profile                           : High@L4.0
Format settings, CABAC                   : Yes
Format settings, ReFrames                : 5 frames
Codec ID                                 : V_MPEG4/ISO/AVC
Duration                                 : 1h 38mn
Bit rate                                 : 4 503 Kbps
Width                                    : 1 920 pixels
Height                                   : 808 pixels
Display aspect ratio                     : 2.40:1
Frame rate mode                          : Constant
Frame rate                               : 24.000 fps
Color space                              : YUV
Chroma subsampling                       : 4:2:0
Bit depth                                : 8 bits
Scan type                                : Progressive
Bits/(Pixel*Frame)                       : 0.121
Stream size                              : 3.11 GiB (85%)
Title                                    : Tapochek
Language                                 : English
Default                                  : Yes
Forced                                   : No
Color primaries                          : BT.709
Transfer characteristics                 : BT.709
Matrix coefficients                      : BT.709

Audio #1
ID                                       : 1
Format                                   : AC-3
Format/Info                              : Audio Coding 3
Mode extension                           : CM (complete main)
Format settings, Endianness              : Big
Codec ID                                 : A_AC3
Duration                                 : 1h 38mn
Bit rate mode                            : Constant
Bit rate                                 : 320 Kbps
Channel(s)                               : 2 channels
Channel positions                        : Front: L R
Sampling rate                            : 48.0 KHz
Bit depth                                : 16 bits
Compression mode                         : Lossy
Delay relative to video                  : -42ms
Stream size                              : 226 MiB (6%)
Title                                    : Официальный
Language                                 : Russian
Default                                  : Yes
Forced                                   : No

Audio #2
ID                                       : 3
Format                                   : AC-3
Format/Info                              : Audio Coding 3
Mode extension                           : CM (complete main)
Format settings, Endianness              : Big
Codec ID                                 : A_AC3
Duration                                 : 1h 38mn
Bit rate mode                            : Constant
Bit rate                                 : 384 Kbps
Channel(s)                               : 6 channels
Channel positions                        : Front: L C R, Side: L R, LFE
Sampling rate                            : 48.0 KHz
Bit depth                                : 16 bits
Compression mode                         : Lossy
Delay relative to video                  : -42ms
Stream size                              : 271 MiB (7%)
Title                                    : Eng
Language                                 : English
Default                                  : No
Forced                                   : No

Menu
00:00:00.000                             : en:1
00:13:16.000                             : en:2
00:25:08.000                             : en:3
00:37:20.000                             : en:4
00:47:06.000                             : en:5
01:03:19.000                             : en:6
01:16:42.000                             : en:7
01:26:40.000                             : en:8
01:35:59.000                             : en:9



Скриншоты:
[+] Всего файлов в раздаче - 1:
Curse.of.the.Witchs.Doll.2018.1080p.WEB-DL.Tapochek.mkv3.67 GB

Текущая раздача:
ДатаКомментарии    РазмерПиры
2018-09-30 U Проклятие: Кукла ведьмы / Curse of the Witch's Doll (2018) WEB-DL 1080p | D | Line 3.67 GB ↑ 134 ↓ 30

Показать еще раздачи по запросу проклятие:
2018-08-19 U Проклятие клада древних славян (2018) SATRip 1.20 GB ↑ 104 ↓ 43
2018-05-08 U Уиджи: Проклятие Вероники / Verónica (2017) BDRip-AVC от HELLYWOOD | iTunes 1.41 GB ↑ 48 ↓ 30
2018-05-08 U Уиджи: Проклятие Вероники / Verónica (2017) BDRip 1080p от ExKinoRay | iTunes 10.44 GB ↑ 248 ↓ 51
2018-05-08 U Уиджи: Проклятие Вероники / Verónica (2017) BDRip 720p от ExKinoRay | iTunes 5.93 GB ↑ 110 ↓ 63
2018-05-08 U Уиджи: Проклятие Вероники / Verónica (2017) BDRip от MegaPeer | iTunes 1.41 GB ↑ 79 ↓ 44
2018-03-25 U Проклятие спящих [01-08 из 08] (2017) WEBRip от GeneralFilm 4.36 GB ↑ 318 ↓ 133
2018-03-25 U Проклятие спящих [01-08 из 08] (2017) WEBRip 5.08 GB ↑ 35 ↓ 22

Отзывы
Зарегистрируйтесь чтобы добавить комментарий.
Обратная связь
Copyleft ©