↑↓Torrent.by
Поиск
Логин: Регистрация
Пароль: Восстановить пароль
Загрузка...

Невероятные приключения Факира / The Extraordinary Journey of the Fakir (2018) WEB-DL 1080p | iTunes

Скачать neveroyatnye-priklyucheniya-fakira-the-extraordinary-journey-of-fakir-2018-web-dl-1080p-itunes.torrent
U Магнитная ссылка Размер: 3.31 GB Раздают: 703 Качают: 205 Добавлен: 2018-10-02 09:51:27
Невероятные приключения Факира / The Extraordinary Journey of the Fakir (2018) WEB-DL 1080p | iTunes

Название: Невероятные приключения Факира
Оригинальное название: The Extraordinary Journey of the Fakir
Год выхода: 2018
Жанр: комедия, приключения
Режиссер: Кен Скотт

В ролях: Дхануш, Беренис Бежо, Эрин Мориарти, Баркхад Абди, Жерар Жюньо, Бен Миллер, Абель Жафри, Сара-Джинн Лабросс, Кай Грейданус, Амрута Сент

О фильме: Если любовь не стучится в дверь, самое время поискать её на другом конце света. Когда нашел — не потерять. А если потерял — вернуть любой ценой. Пускай для этого придется путешествовать в шкафу, на лодке, на воздушном шаре или даже в чемодане. Мумбаи-Париж-Лондон-Рим — если у чувств нет границ, то и бизнес-класс им не нужен.

Страна: Франция, США, Бельгия, Сингапур, Индия
Продолжительность: 01:35:55
Перевод: Профессиональный (полное дублирование) | iTunes

Файл
Кодек: x.264
Качество: WEB-DL 1080p
Видео: AVC, 1920x806 (2.40:1), 24.000 fps, 4 456 Kbps
Аудио: AC-3, 48.0 KHz, 6 ch, 384 Kbps
Субтитры: отсутствуют


[+] MI
Общее
Уникальный идентификатор                 : 194051008158065149282141508908845828602 (0x91FCDD5F4620E698AD8E6E085C9709FA)
Полное имя                               : The Extraordinary Journey of the Fakir.2018.D.WEB-DL.1080p.mkv
Формат                                   : Matroska
Версия формата                           : Version 4 / Version 2
Размер файла                             : 3,31 Гбайт
Продолжительность                        : 1 ч. 35 м.
Общий поток                              : 4942 Кбит/сек
Дата кодирования                         : UTC 2018-10-01 13:50:52
Программа кодирования                    : mkvmerge v8.3.0 ('Over the Horizon') 64bit
Библиотека кодирования                   : libebml v1.3.1 + libmatroska v1.4.2

Видео
Идентификатор                            : 1
Формат                                   : AVC
Формат/Информация                        : Advanced Video Codec
Профиль формата                          : High@L4
Настройки формата                        : CABAC / 5 Ref Frames
Параметр CABAC формата                   : Да
Параметр RefFrames формата               : 5 кадров
Идентификатор кодека                     : V_MPEG4/ISO/AVC
Продолжительность                        : 1 ч. 35 м.
Битрейт                                  : 4556 Кбит/сек
Ширина                                   : 1920 пикселей
Высота                                   : 806 пикселей
Соотношение сторон                       : 2,40:1
Режим частоты кадров                     : Постоянный
Частота кадров                           : 24,000 кадра/сек
Цветовое пространство                    : YUV
Субдискретизация насыщенности            : 4:2:0
Битовая глубина                          : 8 бит
Тип развёртки                            : Прогрессивная
Бит/(Пиксели*Кадры)                      : 0.123
Размер потока                            : 3,05 Гбайт (92%)
Язык                                     : English
Default                                  : Да
Forced                                   : Нет
Цветовой диапазон                        : Limited
Основные цвета                           : BT.709
Характеристики трансфера                 : BT.709
Коэффициенты матрицы                     : BT.709

Аудио
Идентификатор                            : 2
Формат                                   : AC-3
Формат/Информация                        : Audio Coding 3
Идентификатор кодека                     : A_AC3
Продолжительность                        : 1 ч. 35 м.
Вид битрейта                             : Постоянный
Битрейт                                  : 384 Кбит/сек
Каналы                                   : 6 каналов
Расположение каналов                     : Front: L C R, Side: L R, LFE
Частота                                  : 48,0 КГц
Частота кадров                           : 31,250 кадров/сек (1536 SPF)
Битовая глубина                          : 16 бит
Метод сжатия                             : С потерями
Размер потока                            : 263 Мбайт (8%)
Заголовок                                : iTunes
Язык                                     : Russian
Default                                  : Да
Forced                                   : Нет

Меню
00:00:00.000                             : en:Глава 1
00:03:00.333                             : en:Глава 2
00:09:41.791                             : en:Глава 3
00:16:27.291                             : en:Глава 4
00:22:28.499                             : en:Глава 5
00:29:46.874                             : en:Глава 6
00:35:43.124                             : en:Глава 7
00:43:21.332                             : en:Глава 8
00:52:36.290                             : en:Глава 9
00:59:50.456                             : en:Глава 10
01:05:38.872                             : en:Глава 11
01:11:00.288                             : en:Глава 12
01:16:13.746                             : en:Глава 13
01:23:02.496                             : en:Глава 14



Скриншоты:
[+] Всего файлов в раздаче - 1:
The Extraordinary Journey of the Fakir.2018.D.WEB-DL.1080p.mkv3.31 GB

Показать еще раздачи по запросу невероятные:
2018-10-06 U Невероятные приключения Факира / The Extraordinary Journey of the Fakir (2018) BDRip 1080p | iTunes 7.78 GB ↑ 218 ↓ 86
2018-10-06 U Невероятные приключения Факира / The Extraordinary Journey of the Fakir (2018) BDRip от MegaPeer | iTunes 1.42 GB ↑ 361 ↓ 68
2018-10-05 U Невероятные приключения Факира / The Extraordinary Journey of the Fakir (2018) BDRip 720p | iTunes 4.62 GB ↑ 288 ↓ 36
2018-09-30 U Невероятные приключения Факира / The Extraordinary Journey of the Fakir (2018) WEB-DLRip от MegaPeer | iTunes 1.46 GB ↑ 883 ↓ 255
2018-06-27 U Невероятные приключения ДжоДжо / JoJo's Bizarre Adventure: Diamond Is Unbreakable 1 (2017) BDRip-AVC | L 1К1.13 GB ↑ 22 ↓ 8
2018-05-25 U Невероятные приключения янки в Африке / Yankee Zulu (1993) WEB-DLRip 1080p | P, P2 8.78 GB ↑ 121 ↓ 34
2017-12-25 U Невероятные приключения Алины Троянской [01-04 из 04] (2014) WEB-DLRip-AVC от Files-x 4.47 GB ↑ 210 ↓ 96

Отзывы
Зарегистрируйтесь чтобы добавить комментарий.
Обратная связь
Copyleft ©