↑↓Torrent.by
Поиск
Логин: Регистрация
Пароль: Восстановить пароль
Загрузка...

Как женить холостяка / Destination Wedding (2018) WEB-DL 1080p от TeamHD | iTunes

Скачать kak-zhenit-holostyaka-destination-wedding-2018-web-dl-1080p-ot-teamhd-itunes.torrent
U Магнитная ссылка Размер: 3.26 GB Раздают: 785 Качают: 183 Добавлен: 2018-10-03 07:21:27
Как женить холостяка / Destination Wedding (2018) WEB-DL 1080p от TeamHD | iTunes

Название: Как женить холостяка
Оригинальное название: Destination Wedding
Год выхода: 2018
Жанр: Драма, мелодрама, комедия
Режиссер: Виктор Левин
В ролях: Киану Ривз, Вайнона Райдер, Грег Люси, Тед Дюбо, Д. Рош Райт, Курт Дюбо, Донна Линн Джонс, Джеймс Галлардо, Скотт Эндрюс

О фильме: Закоренелый холостяк Фрэнк и коварная соблазнительница Линдси приглашены на одну свадьбу. Странным образом они везде оказываются вместе: в самолете, такси, в соседних номерах и за столом. Похоже, кто-то придумал хитроумный план поймать их в любовные сети и наконец женить холостяка.

Страна: США
Студия: Chapman-Leonard, CISS, Company 3
Продолжительность: 01:26:46
Перевод: Дублированный | iTunes

Качество: WEB-DL 1080p
Видео: MPEG-4 AVC, 1916x800, 4615 Kbit/s, 23.976 fps
Звук:
Аудио #01: 48 kHz, AC3, 5.1, 384 Kbps | iTunes | RUS |
Аудио #02: 48 kHz, AC3, 5.1, 384 Kbps | Оригинал |  ENG |
Субтитры: Английские

Релиз: Автор релиза:


[+] MI
General
Unique ID : 253840391860473067539709681512982695602 (0xBEF7E194E016B13BA0102EAFC16ACEB2)
Complete name : D:Video111Destination.Wedding.2018.1080p.WEB-DL.Rus.Eng.TeamHD.mkv
Format : Matroska
Format version : Version 4
File size : 3.26 GiB
Duration : 1 h 26 min
Overall bit rate : 5 385 kb/s
Movie name : Destination Wedding 2018 TeamHD-селезень
Encoded date : UTC 2018-10-02 09:16:40
Writing application : mkvmerge v7.3.0 ('Nouages') 64bit built on Oct 22 2014 18:53:34
Writing library : libebml v1.3.0 + libmatroska v1.4.1

Video
ID : 1
Format : AVC
Format/Info : Advanced Video Codec
Format profile : High@L4
Format settings : CABAC / 5 Ref Frames
Format settings, CABAC : Yes
Format settings, ReFrames : 5 frames
Codec ID : V_MPEG4/ISO/AVC
Duration : 1 h 26 min
Bit rate : 4 615 kb/s
Width : 1 916 pixels
Height : 800 pixels
Display aspect ratio : 2.40:1
Frame rate mode : Constant
Frame rate : 23.976 (23976/1000) FPS
Color space : YUV
Chroma subsampling : 4:2:0
Bit depth : 8 bits
Scan type : Progressive
Bits/(Pixel*Frame) : 0.126
Stream size : 2.80 GiB (86%)
Language : English
Default : Yes
Forced : No
Color range : Limited
Color primaries : BT.709
Transfer characteristics : BT.709
Matrix coefficients : BT.709

Audio #1
ID : 2
Format : AC-3
Format/Info : Audio Coding 3
Commercial name : Dolby Digital
Codec ID : A_AC3
Duration : 1 h 26 min
Bit rate mode : Constant
Bit rate : 384 kb/s
Channel(s) : 6 channels
Channel layout : L R C LFE Ls Rs
Sampling rate : 48.0 kHz
Frame rate : 31.250 FPS (1536 SPF)
Bit depth : 16 bits
Compression mode : Lossy
Delay relative to video : -42 ms
Stream size : 238 MiB (7%)
Title : iTunes
Language : Russian
Service kind : Complete Main
Default : Yes
Forced : No

Audio #2
ID : 3
Format : AC-3
Format/Info : Audio Coding 3
Commercial name : Dolby Digital
Codec ID : A_AC3
Duration : 1 h 26 min
Bit rate mode : Constant
Bit rate : 384 kb/s
Channel(s) : 6 channels
Channel layout : L R C LFE Ls Rs
Sampling rate : 48.0 kHz
Frame rate : 31.250 FPS (1536 SPF)
Bit depth : 16 bits
Compression mode : Lossy
Delay relative to video : -42 ms
Stream size : 238 MiB (7%)
Title : Original
Language : English
Service kind : Complete Main
Default : No
Forced : No

Text
ID : 4
Format : UTF-8
Codec ID : S_TEXT/UTF8
Codec ID/Info : UTF-8 Plain Text
Duration : 1 h 21 min
Bit rate : 120 b/s
Count of elements : 1521
Stream size : 71.9 KiB (0%)
Language : English
Default : No
Forced : No

Menu
00:00:00.000 : en:1
00:05:14.105 : en:2
00:09:08.255 : en:3
00:15:54.703 : en:4
00:20:35.066 : en:5
00:24:38.851 : en:6
00:28:39.299 : en:7
00:31:59.415 : en:8
00:33:30.214 : en:9
00:37:30.037 : en:10
00:39:33.952 : en:11
00:45:11.664 : en:12
00:49:47.189 : en:13
00:50:47.082 : en:14
00:58:26.916 : en:15
01:06:52.212 : en:16
01:10:58.833 : en:17
01:15:55.713 : en:18
01:19:03.484 : en:19
01:21:41.475 : en:20



Скриншоты:
[+] Всего файлов в раздаче - 1:
Destination.Wedding.2018.1080p.WEB-DL.Rus.Eng.TeamHD.mkv3.26 GB

Текущая раздача:
ДатаКомментарии    РазмерПиры
2018-10-03 U Как женить холостяка / Destination Wedding (2018) WEB-DL 1080p от TeamHD | iTunes 3.26 GB ↑ 785 ↓ 183

Показать еще раздачи по запросу женить:
2018-10-03 U Как женить холостяка / Destination Wedding (2018) WEB-DLRip-AVC от OlLanDGroup | D, P | iTunes 1К1.69 GB ↑ 81 ↓ 29
2018-10-03 U Как женить холостяка / Destination Wedding (2018) WEB-DL 720p от TeamHD | iTunes 2.96 GB ↑ 210 ↓ 57
2018-10-03 U Как женить холостяка / Destination Wedding (2018) WEB-DLRip от MegaPeer | iTunes 1.46 GB ↑ 1020 ↓ 280
2018-09-19 U Как женить холостяка / Destination Wedding (2018) WEB-DLRip-AVC | HDrezka Studio 743.61 MB ↑ 72 ↓ 41
2018-09-17 U Как женить холостяка / Destination Wedding (2018) WEB-DLRip от MegaPeer | HDrezka Studio 1.46 GB ↑ 294 ↓ 158
2018-09-17 U Как женить холостяка / Destination Wedding (2018) WEB-DL 1080p от OlLanDGroup | HDRezka Studio 3.15 GB ↑ 366 ↓ 208
2017-09-30 U Приказано женить [01-02 из 02] (2012) WEB-DLRip от Files-x 1.17 GB ↑ 180 ↓ 63

Отзывы
Зарегистрируйтесь чтобы добавить комментарий.
Обратная связь
Copyleft ©