↑↓Torrent.by
Поиск
Логин: Регистрация
Пароль: Восстановить пароль
Загрузка...

Убийца 2. Против всех / Sicario: Day of the Soldado (2018) BDRip 1080p от TeamHD | D, P, A | iTunes

Скачать ubiyca-2-protiv-vseh-sicario-day-of-the-soldado-2018-bdrip-1080p-ot-teamhd-d-p-a-itunes.torrent
U Магнитная ссылка Размер: 12.44 GB Раздают: 310 Качают: 100 Добавлен: 2018-10-03 07:21:46
Убийца 2. Против всех / Sicario: Day of the Soldado (2018) BDRip 1080p от TeamHD | D, P, A | iTunes

Название: Убийца 2. Против всех
Оригинальное название: Sicario 2: Day of the Soldado
Год выхода: 2018
Жанр: Боевик, триллер, драма, криминал
Режиссер: Стефано Соллима
В ролях: Бенисио Дель Торо, Джош Бролин, Изабела Монер, Джеффри Донован, Кэтрин Кинер, Мануэль Рульфо, Мэттью Модайн, Шей Уигэм, Элиас Гарза, Ховард Фергюсон мл.

О фильме: Обстановка на американо-мексиканской границе накаляется, когда наркокартели начинают переправлять в США террористов. Чтобы дать им отпор федеральный агент Мэтт Грейвер вынужден вновь объединиться с не самым надежным напарником — Алехандро.

Страна: США, Италия
Студия: Black Label Media,Rai Cinema,Thunder Road Pictures
Продолжительность: 02:02:24
Перевод(ы): Дублированный (iTunes), Профессиональный многоголосый (HDRezka Studio), авторский (Дмитрий Есарев)

Качество: BDRip 1080p
Видео: MPEG-4 AVC, 1920x800, 9440 Kbit/s, 23.976 fps
Звук:
Аудио #01: 48 kHz, AC3, 5.1, 384 Kbps | iTunes | RUS |
Аудио #02: 48 kHz, AC3, 2.0, 192 Kbps | HDRezka Studio | RUS |
Аудио #03: 48 kHz, DTS, 5.1, 1510 Kbps | Есарев (цензура) | RUS |
Аудио #04: 48 kHz, DTS, 5.1, 1510 Kbps | Есарев (незензурный) | RUS |
Аудио #05: 48 kHz, DTS, 5.1, 1510 Kbps | Оригинал |  ENG |
Субтитры: Русские (Forced,Full), английские (Full,SDH)

Релиз: Автор релиза:


[+] MI
General
Unique ID                   : 204485060924768332527783880518675218920 (0x99D663E43E9D0D9488F801F1645841E8)
Complete name               : D:Video111Sicario.2.Day.of.the.Soldado.2018.BluRay.1080p.Rus.Eng.TeamHD-CHD.mkv
Format                      : Matroska
Format version              : Version 4
File size                   : 12.4 GiB
Duration                    : 2 h 2 min
Overall bit rate            : 14.5 Mb/s
Movie name                  : Sicario Day of the Soldado (2018) TeamHD-селезень
Encoded date                : UTC 2018-10-02 11:14:50
Writing application         : mkvmerge v7.3.0 ('Nouages') 64bit built on Oct 22 2014 18:53:34
Writing library             : libebml v1.3.0 + libmatroska v1.4.1

Video
ID                          : 1
Format                      : AVC
Format/Info                 : Advanced Video Codec
Format profile              : High@L4.1
Format settings             : CABAC / 5 Ref Frames
Format settings, CABAC      : Yes
Format settings, ReFrames   : 5 frames
Codec ID                    : V_MPEG4/ISO/AVC
Duration                    : 2 h 2 min
Bit rate                    : 9 440 kb/s
Width                       : 1 920 pixels
Height                      : 800 pixels
Display aspect ratio        : 2.40:1
Frame rate mode             : Constant
Frame rate                  : 23.976 (24000/1001) FPS
Color space                 : YUV
Chroma subsampling          : 4:2:0
Bit depth                   : 8 bits
Scan type                   : Progressive
Bits/(Pixel*Frame)          : 0.256
Stream size                 : 8.07 GiB (65%)
Writing library             : x264 core 155 r2893 b00bcaf
Encoding settings           : cabac=1 / ref=5 / deblock=1:-3:-3 / analyse=0x3:0x113 / me=umh / subme=10 / psy=1 / psy_rd=1.00:0.05 / mixed_ref=1 / me_range=48 / chroma_me=1 / trellis=2 / 8x8dct=1 / cqm=0 / deadzone=21,11 / fast_pskip=0 / chroma_qp_offset=-2 / threads=18 / lookahead_threads=3 / sliced_threads=0 / nr=0 / decimate=1 / interlaced=0 / bluray_compat=0 / constrained_intra=0 / bframes=8 / b_pyramid=2 / b_adapt=2 / b_bias=0 / direct=3 / weightb=1 / open_gop=0 / weightp=2 / keyint=250 / keyint_min=23 / scenecut=40 / intra_refresh=0 / rc_lookahead=40 / rc=crf / mbtree=0 / crf=18.0 / qcomp=0.60 / qpmin=0 / qpmax=69 / qpstep=4 / vbv_maxrate=50000 / vbv_bufsize=45000 / crf_max=0.0 / nal_hrd=none / filler=0 / ip_ratio=1.40 / pb_ratio=1.30 / aq=3:1.00
Language                    : English
Default                     : Yes
Forced                      : No
Color range                 : Limited
Matrix coefficients         : BT.709

Audio #1
ID                          : 2
Format                      : AC-3
Format/Info                 : Audio Coding 3
Commercial name             : Dolby Digital
Codec ID                    : A_AC3
Duration                    : 2 h 2 min
Bit rate mode               : Constant
Bit rate                    : 384 kb/s
Channel(s)                  : 6 channels
Channel layout              : L R C LFE Ls Rs
Sampling rate               : 48.0 kHz
Frame rate                  : 31.250 FPS (1536 SPF)
Bit depth                   : 16 bits
Compression mode            : Lossy
Stream size                 : 336 MiB (3%)
Title                       : iTunes
Language                    : Russian
Service kind                : Complete Main
Default                     : Yes
Forced                      : Yes

Audio #2
ID                          : 3
Format                      : AC-3
Format/Info                 : Audio Coding 3
Commercial name             : Dolby Digital
Codec ID                    : A_AC3
Duration                    : 2 h 2 min
Bit rate mode               : Constant
Bit rate                    : 192 kb/s
Channel(s)                  : 2 channels
Channel layout              : L R
Sampling rate               : 48.0 kHz
Frame rate                  : 31.250 FPS (1536 SPF)
Bit depth                   : 16 bits
Compression mode            : Lossy
Stream size                 : 168 MiB (1%)
Title                       : MVO [HDRezka Studio]
Language                    : Russian
Service kind                : Complete Main
Default                     : No
Forced                      : No

Audio #3
ID                          : 4
Format                      : DTS
Format/Info                 : Digital Theater Systems
Codec ID                    : A_DTS
Duration                    : 2 h 2 min
Bit rate mode               : Constant
Bit rate                    : 1 509 kb/s
Channel(s)                  : 6 channels
Channel layout              : C L R Ls Rs LFE
Sampling rate               : 48.0 kHz
Frame rate                  : 93.750 FPS (512 SPF)
Bit depth                   : 16 bits
Compression mode            : Lossy
Stream size                 : 1.29 GiB (10%)
Title                       : AVO [Есарев] (цензура)
Language                    : Russian
Default                     : No
Forced                      : No

Audio #4
ID                          : 5
Format                      : DTS
Format/Info                 : Digital Theater Systems
Codec ID                    : A_DTS
Duration                    : 2 h 2 min
Bit rate mode               : Constant
Bit rate                    : 1 509 kb/s
Channel(s)                  : 6 channels
Channel layout              : C L R Ls Rs LFE
Sampling rate               : 48.0 kHz
Frame rate                  : 93.750 FPS (512 SPF)
Bit depth                   : 16 bits
Compression mode            : Lossy
Stream size                 : 1.29 GiB (10%)
Title                       : AVO [Есарев] (нецензурный)
Language                    : Russian
Default                     : No
Forced                      : No

Audio #5
ID                          : 6
Format                      : DTS
Format/Info                 : Digital Theater Systems
Codec ID                    : A_DTS
Duration                    : 2 h 2 min
Bit rate mode               : Constant
Bit rate                    : 1 509 kb/s
Channel(s)                  : 6 channels
Channel layout              : C L R Ls Rs LFE
Sampling rate               : 48.0 kHz
Frame rate                  : 93.750 FPS (512 SPF)
Bit depth                   : 24 bits
Compression mode            : Lossy
Stream size                 : 1.29 GiB (10%)
Title                       : Original
Language                    : English
Default                     : No
Forced                      : No

Text #1
ID                          : 7
Format                      : UTF-8
Codec ID                    : S_TEXT/UTF8
Codec ID/Info               : UTF-8 Plain Text
Duration                    : 1 h 53 min
Bit rate                    : 5 b/s
Count of elements           : 153
Stream size                 : 4.84 KiB (0%)
Title                       : Forced
Language                    : Russian
Default                     : Yes
Forced                      : Yes

Text #2
ID                          : 8
Format                      : UTF-8
Codec ID                    : S_TEXT/UTF8
Codec ID/Info               : UTF-8 Plain Text
Duration                    : 1 h 53 min
Bit rate                    : 54 b/s
Count of elements           : 966
Stream size                 : 45.2 KiB (0%)
Title                       : Full
Language                    : Russian
Default                     : No
Forced                      : No

Text #3
ID                          : 9
Format                      : UTF-8
Codec ID                    : S_TEXT/UTF8
Codec ID/Info               : UTF-8 Plain Text
Duration                    : 1 h 52 min
Bit rate                    : 30 b/s
Count of elements           : 831
Stream size                 : 25.3 KiB (0%)
Title                       : Full
Language                    : English
Default                     : No
Forced                      : No

Text #4
ID                          : 10
Format                      : UTF-8
Codec ID                    : S_TEXT/UTF8
Codec ID/Info               : UTF-8 Plain Text
Duration                    : 2 h 1 min
Bit rate                    : 38 b/s
Count of elements           : 1071
Stream size                 : 34.2 KiB (0%)
Title                       : SDH
Language                    : English
Default                     : No
Forced                      : No

Menu
00:00:00.000                : en:00:00:00.000
00:06:38.189                : en:00:06:38.189
00:14:45.593                : en:00:14:45.593
00:18:48.502                : en:00:18:48.502
00:27:08.335                : en:00:27:08.335
00:34:08.964                : en:00:34:08.964
00:42:28.671                : en:00:42:28.671
00:51:10.442                : en:00:51:10.442
01:00:58.071                : en:01:00:58.071
01:09:20.114                : en:01:09:20.114
01:14:26.796                : en:01:14:26.796
01:23:24.958                : en:01:23:24.958
01:28:41.358                : en:01:28:41.358
01:35:38.900                : en:01:35:38.900
01:41:44.348                : en:01:41:44.348
01:46:15.494                : en:01:46:15.494



Скриншоты:
[+] Всего файлов в раздаче - 1:
Sicario.2.Day.of.the.Soldado.2018.BluRay.1080p.Rus.Eng.TeamHD-CHD.mkv12.44 GB

Текущая раздача:
ДатаКомментарии    РазмерПиры
2018-10-03 U Убийца 2. Против всех / Sicario: Day of the Soldado (2018) BDRip 1080p от TeamHD | D, P, A | iTunes 12.44 GB ↑ 310 ↓ 100

Показать еще раздачи по запросу убийца:
2018-11-12 U Убийца 2. Против всех / Sicario: Day of the Soldado (2018) BDRip 1080p от qqss44 & MegaPeer | iTunes 7.53 GB ↑ 89 ↓ 30
2018-10-19 U Последний убийца драконов / The Last Dragonslayer (2016) WEB-DLRip 1080p | LakeFilms 1К3.52 GB ↑ 111 ↓ 14
2018-10-04 U Убийца 2. Против всех / Sicario: Day of the Soldado (2018) BDRip от ExKinoRay | iTunes 1.46 GB ↑ 109 ↓ 35
2018-10-04 U Убийца 2. Против всех / Sicario: Day of the Soldado (2018) BDRip 720p от Scarabey | iTunes, P 4.86 GB ↑ 103 ↓ 37
2018-10-03 U Убийца 2. Против всех / Sicario: Day of the Soldado (2018) BDRip от MegaPeer | iTunes 747.05 MB ↑ 51 ↓ 27
2018-10-03 U Убийца 2. Против всех / Sicario: Day of the Soldado (2018) BDRip от ExKinoRay | iTunes 2.13 GB ↑ 61 ↓ 15
2018-10-03 U Убийца 2. Против всех / Sicario: Day of the Soldado (2018) BDRip от ExKinoRay | iTunes 1.46 GB ↑ 111 ↓ 21

Отзывы
Зарегистрируйтесь чтобы добавить комментарий.
Обратная связь
Copyleft ©