↑↓Torrent.by
Поиск
Логин: Регистрация
Пароль: Восстановить пароль
Загрузка...

Убийца 2. Против всех / Sicario: Day of the Soldado (2018) BDRip-AVC от OlLanDGroup | D, P, A, L | iTunes

Скачать ubiyca-2-protiv-vseh-sicario-day-of-the-soldado-2018-bdrip-avc-ot-ollandgroup-d-p-a-l-itunes.torrent
U Магнитная ссылка Размер: 3.21 GB Раздают: 97 Качают: 26 Добавлен: 2018-10-03 07:22:06
Убийца 2. Против всех / Sicario: Day of the Soldado (2018) BDRip-AVC от OlLanDGroup | D, P, A, L | iTunes

Убийца 2. Против всех / Sicario 2: Day of the Soldado
«Правила мертвы»

Год выпуска: 2018
Страна: США, Италия
Производство: Black Label Media,Rai Cinema,Thunder Road Pictures
Жанр:  Боевик, триллер, драма, криминал

Режиссёр: Стефано Соллима
В ролях: Бенисио Дель Торо, Джош Бролин, Изабела Монер, Джеффри Донован, Кэтрин Кинер, Мануэль Рульфо, Мэттью Модайн, Шей Уигэм, Элиас Гарза, Ховард Фергюсон мл.

Перевод:
• Профессиональный (полное дублирование) | [iTunes]
• Профессиональный (многоголосый, закадровый) | [HDRezka Studio]
• Авторский (одноголосый, закадровый) | [Есарев]
• Любительский (одноголосый, закадровый) | [BadBajo]
Субтитры: Русские (полные), Английские (полные, SDH)
Реклама: Отсутствует

Описание: Обстановка на американо-мексиканской границе накаляется, когда наркокартели начинают переправлять в США террористов. Чтобы дать им отпор федеральный агент Мэтт Грейвер вынужден вновь объединиться с не самым надежным напарником — Алехандро.

Качество: BDRip-AVC | BluRay Disc | Sicario Day of the Soldado 2018 BluRay 1080p AVC DTS-HD MA7.1-MTeam
Продолжительность: 02:02:23

Формат: MKV
Видео кодек: MPEG-4 AVC
Аудио кодек: AC3
Видео: 1024x426 (2.40:1), 23,976 fps, x264 ~1 831 kbps avg, 0.175 bit/pixel
Аудио #1: 48 kHz, AC3 Dolby Digital, 3/2 (L,C,R,l,r) + LFE ch, ~384.00 kbps avg | RUS (iTunes)
Аудио #2: 48 kHz, AC3 Dolby Digital, 2 (L,R) ch, ~192.00 kbps avg | RUS (HDRezka Studio)
Аудио #3: 48 kHz, AC3 Dolby Digital, 3/2 (L,C,R,l,r) + LFE ch, ~448.00 kbps avg | RUS (Esarev)
Аудио #4: 48 kHz, AC3 Dolby Digital, 3/2 (L,C,R,l,r) + LFE ch, ~448.00 kbps avg | RUS (BadBajo)
Аудио #5: 48 kHz, AC3 Dolby Digital, 3/2 (L,C,R,l,r) + LFE ch, ~448.00 kbps avg | ENG

Дата премьеры (мир): 27 июня 2018
Дата премьеры (РФ): 28 июня 2018, «Централ Партнершип»
Цифровой релиз: 13 октября 2018, «Централ Партнершип»

Релиз:


[+] MediaInfo

Общее
Уникальный идентификатор                 : 51763699142687804882153082423164533298 (0x26F15369033B21C746FACD23821BFA32)
Полное имя                               : F:OlLanDGroupSicario.Day.of.the.Soldado.2018.BDRip(AVC).OlLanDGroup.mkv
Формат                                   : Matroska
Версия формата                           : Version 4 / Version 2
Размер файла                             : 3,21 Гбайт
Продолжительность                        : 2 ч. 2 м.
Общий поток                              : 3753 Кбит/сек
Название фильма                          : Sicario.Day.of.the.Soldado.2018   #TorpedoUK#
Дата кодирования                         : UTC 2018-10-02 10:23:50
Программа кодирования                    : mkvmerge v25.0.0 ('Prog Noir') 64-bit
Библиотека кодирования                   : libebml v1.3.6 + libmatroska v1.4.9

Видео
Идентификатор                            : 1
Формат                                   : AVC
Формат/Информация                        : Advanced Video Codec
Профиль формата                          : High@L4.1
Параметр CABAC формата                   : Да
Параметр ReFrames формата                : 10 кадров
Идентификатор кодека                     : V_MPEG4/ISO/AVC
Продолжительность                        : 2 ч. 2 м.
Битрейт                                  : 1831 Кбит/сек
Ширина                                   : 1024 пикселя
Высота                                   : 426 пикселей
Соотношение сторон                       : 2,40:1
Режим частоты кадров                     : Постоянный
Частота кадров                           : 23,976 (24000/1001) кадра/сек
Цветовое пространство                    : YUV
Субдискретизация насыщенности            : 4:2:0
Битовая глубина                          : 8 бит
Тип развёртки                            : Прогрессивная
Бит/(Пиксели*Кадры)                      : 0.175
Размер потока                            : 1,57 Гбайт (49%)
Библиотека кодирования                   : x264 core 146 r2538 121396c
Настройки программы                      : cabac=1 / ref=10 / deblock=1:-3:-3 / analyse=0x3:0x113 / me=umh / subme=11 / psy=1 / psy_rd=0.99:0.04 / mixed_ref=1 / me_range=48 / chroma_me=1 / trellis=2 / 8x8dct=1 / cqm=0 / deadzone=21,11 / fast_pskip=1 / chroma_qp_offset=-3 / threads=6 / lookahead_threads=1 / sliced_threads=0 / nr=0 / decimate=1 / interlaced=0 / bluray_compat=0 / constrained_intra=0 / bframes=10 / b_pyramid=2 / b_adapt=2 / b_bias=0 / direct=3 / weightb=1 / open_gop=0 / weightp=2 / keyint=240 / keyint_min=23 / scenecut=40 / intra_refresh=0 / rc_lookahead=40 / rc=2pass / mbtree=0 / bitrate=1831 / ratetol=1.0 / qcomp=0.60 / qpmin=0 / qpmax=69 / qpstep=4 / cplxblur=20.0 / qblur=0.5 / vbv_maxrate=50000 / vbv_bufsize=62500 / nal_hrd=none / filler=0 / ip_ratio=1.40 / pb_ratio=1.30 / aq=1:1.00
Язык                                     : English
Default                                  : Да
Forced                                   : Нет

Аудио #1
Идентификатор                            : 2
Формат                                   : AC-3
Формат/Информация                        : Audio Coding 3
Расширение режима                        : CM (complete main)
Параметр Endianness формата              : Big
Идентификатор кодека                     : A_AC3
Продолжительность                        : 2 ч. 2 м.
Вид битрейта                             : Постоянный
Битрейт                                  : 384 Кбит/сек
Каналы                                   : 6 каналов
Расположение каналов                     : Front: L C R, Side: L R, LFE
Частота                                  : 48,0 КГц
Частота кадров                           : 31,250 кадров/сек (1536 spf)
Битовая глубина                          : 16 бит
Метод сжатия                             : С потерями
Размер потока                            : 336 Мбайт (10%)
Заголовок                                : DUB [iTunes]
Язык                                     : Russian
Default                                  : Да
Forced                                   : Нет

Аудио #2
Идентификатор                            : 3
Формат                                   : AC-3
Формат/Информация                        : Audio Coding 3
Расширение режима                        : CM (complete main)
Параметр Endianness формата              : Big
Идентификатор кодека                     : A_AC3
Продолжительность                        : 2 ч. 2 м.
Вид битрейта                             : Постоянный
Битрейт                                  : 192 Кбит/сек
Каналы                                   : 2 канала
Расположение каналов                     : Front: L R
Частота                                  : 48,0 КГц
Частота кадров                           : 31,250 кадров/сек (1536 spf)
Битовая глубина                          : 16 бит
Метод сжатия                             : С потерями
Размер потока                            : 168 Мбайт (5%)
Заголовок                                : MVO [HDRezka Studio]
Язык                                     : Russian
Default                                  : Нет
Forced                                   : Нет

Аудио #3
Идентификатор                            : 4
Формат                                   : AC-3
Формат/Информация                        : Audio Coding 3
Расширение режима                        : CM (complete main)
Параметр Endianness формата              : Big
Идентификатор кодека                     : A_AC3
Продолжительность                        : 2 ч. 2 м.
Вид битрейта                             : Постоянный
Битрейт                                  : 448 Кбит/сек
Каналы                                   : 6 каналов
Расположение каналов                     : Front: L C R, Side: L R, LFE
Частота                                  : 48,0 КГц
Частота кадров                           : 31,250 кадров/сек (1536 spf)
Битовая глубина                          : 16 бит
Метод сжатия                             : С потерями
Размер потока                            : 392 Мбайт (12%)
Заголовок                                : AVO [Esarev]
Язык                                     : Russian
Default                                  : Нет
Forced                                   : Нет

Аудио #4
Идентификатор                            : 5
Формат                                   : AC-3
Формат/Информация                        : Audio Coding 3
Расширение режима                        : CM (complete main)
Параметр Endianness формата              : Big
Идентификатор кодека                     : A_AC3
Продолжительность                        : 2 ч. 2 м.
Вид битрейта                             : Постоянный
Битрейт                                  : 448 Кбит/сек
Каналы                                   : 6 каналов
Расположение каналов                     : Front: L C R, Side: L R, LFE
Частота                                  : 48,0 КГц
Частота кадров                           : 31,250 кадров/сек (1536 spf)
Битовая глубина                          : 16 бит
Метод сжатия                             : С потерями
Размер потока                            : 392 Мбайт (12%)
Заголовок                                : VO [BadBajo]
Язык                                     : Russian
Default                                  : Нет
Forced                                   : Нет

Аудио #5
Идентификатор                            : 6
Формат                                   : AC-3
Формат/Информация                        : Audio Coding 3
Расширение режима                        : CM (complete main)
Параметр Endianness формата              : Big
Идентификатор кодека                     : A_AC3
Продолжительность                        : 2 ч. 2 м.
Вид битрейта                             : Постоянный
Битрейт                                  : 448 Кбит/сек
Каналы                                   : 6 каналов
Расположение каналов                     : Front: L C R, Side: L R, LFE
Частота                                  : 48,0 КГц
Частота кадров                           : 31,250 кадров/сек (1536 spf)
Битовая глубина                          : 16 бит
Метод сжатия                             : С потерями
Размер потока                            : 392 Мбайт (12%)
Заголовок                                : [Original]
Язык                                     : English
Default                                  : Нет
Forced                                   : Нет

Текст #1
Идентификатор                            : 7
Формат                                   : UTF-8
Идентификатор кодека                     : S_TEXT/UTF8
Идентификатор кодека/Информация          : UTF-8 Plain Text
Продолжительность                        : 1 ч. 53 м.
Битрейт                                  : 54 бит/сек
Count of elements                        : 966
Размер потока                            : 45,2 Кбайт (0%)
Заголовок                                : Full
Язык                                     : Russian
Default                                  : Нет
Forced                                   : Нет

Текст #2
Идентификатор                            : 8
Формат                                   : UTF-8
Идентификатор кодека                     : S_TEXT/UTF8
Идентификатор кодека/Информация          : UTF-8 Plain Text
Продолжительность                        : 1 ч. 52 м.
Битрейт                                  : 30 бит/сек
Count of elements                        : 831
Размер потока                            : 25,3 Кбайт (0%)
Заголовок                                : Full
Язык                                     : English
Default                                  : Нет
Forced                                   : Нет

Текст #3
Идентификатор                            : 9
Формат                                   : UTF-8
Идентификатор кодека                     : S_TEXT/UTF8
Идентификатор кодека/Информация          : UTF-8 Plain Text
Продолжительность                        : 2 ч. 1 м.
Битрейт                                  : 38 бит/сек
Count of elements                        : 1071
Размер потока                            : 34,2 Кбайт (0%)
Заголовок                                : SDH
Язык                                     : English
Default                                  : Нет
Forced                                   : Нет

Меню
00:00:00.000                             : :00:00:00.000
00:06:38.189                             : :00:06:38.189
00:14:45.592                             : :00:14:45.592
00:18:48.501                             : :00:18:48.501
00:27:08.335                             : :00:27:08.335
00:34:08.963                             : :00:34:08.963
00:42:28.670                             : :00:42:28.670
00:51:10.442                             : :00:51:10.442
01:00:58.070                             : :01:00:58.070
01:09:20.113                             : :01:09:20.113
01:14:26.795                             : :01:14:26.795
01:23:24.957                             : :01:23:24.957
01:28:41.356                             : :01:28:41.356
01:35:38.899                             : :01:35:38.899
01:41:44.347                             : :01:41:44.347
01:46:15.493                             : :01:46:15.493



Скриншоты:
[+] Всего файлов в раздаче - 1:
Sicario.Day.of.the.Soldado.2018.BDRip(AVC).OlLanDGroup.mkv3.21 GB

Текущая раздача:
ДатаКомментарии    РазмерПиры
2018-10-03 U Убийца 2. Против всех / Sicario: Day of the Soldado (2018) BDRip-AVC от OlLanDGroup | D, P, A, L | iTunes 3.21 GB ↑ 97 ↓ 26

Показать еще раздачи по запросу убийца:
Сегодня U Последний убийца драконов / The Last Dragonslayer (2016) WEB-DLRip 1080p | LakeFilms 1К3.52 GB ↑ 46 ↓ 11
2018-10-04 U Убийца 2. Против всех / Sicario: Day of the Soldado (2018) BDRip от ExKinoRay | iTunes 1.46 GB ↑ 71 ↓ 30
2018-10-04 U Убийца 2. Против всех / Sicario: Day of the Soldado (2018) BDRip 720p от Scarabey | iTunes, P 4.86 GB ↑ 82 ↓ 34
2018-10-03 U Убийца 2. Против всех / Sicario: Day of the Soldado (2018) BDRip от MegaPeer | iTunes 747.05 MB ↑ 51 ↓ 26
2018-10-03 U Убийца 2. Против всех / Sicario: Day of the Soldado (2018) BDRip от ExKinoRay | iTunes 2.13 GB ↑ 57 ↓ 15
2018-10-03 U Убийца 2. Против всех / Sicario: Day of the Soldado (2018) BDRip от ExKinoRay | iTunes 1.46 GB ↑ 106 ↓ 21
2018-10-03 U Убийца 2. Против всех / Sicario: Day of the Soldado (2018) BDRip 1080p от TeamHD | D, P, A | iTunes 12.44 GB ↑ 291 ↓ 96

Отзывы
Зарегистрируйтесь чтобы добавить комментарий.
Обратная связь
Copyleft ©