↑↓Torrent.by
Поиск
Логин: Регистрация
Пароль: Восстановить пароль
Загрузка...

Подвал / The Basement (2018) WEB-DL 1080p от OlLanDGroup | HDRezka Studio

Скачать podval-the-basement-2018-web-dl-1080p-ot-ollandgroup-hdrezka-studio.torrent
U Магнитная ссылка Размер: 3.17 GB Раздают: 94 Качают: 45 Добавлен: 2018-10-03 07:22:13
Подвал / The Basement (2018) WEB-DL 1080p от OlLanDGroup | HDRezka Studio

Подвал / The Basement
«Two Men. Twelve Personalities. One Living Hell»

Год выпуска: 2018
Страна: США
Производство: Conley Company, The
Жанр:  Ужасы

Режиссёр: Брайан М. Конли, Нэйтан Айвз
В ролях: Миша Бартон, Трэйси Томс, Бэйли Энн Бордерс, Джефф Дэвис, Карим Дж. Граймс, Джессика Соннеборн, Мария Волк, Сара Никлин, Памела Уистром, Кейлб Лонг

Перевод: Профессиональный (многоголосый, закадровый) | [HDRezka Studio]
Субтитры: Английские (полные)
Реклама: Отсутствует

Описание: Музыкант Крейг Оуэн оказывается похищен и просыпается в подвале. Его похититель, известный как «Близнецы», – извращенный серийный убийца, который пытает и убивает несчастных жертв в подвале собственного дома в Сан-Фернандо. Двенадцать личностей меняются в одном человеке, чтобы каждая могла принять участие в ужасающих пытках, превращающих жизнь музыканта в настоящий ад. И теперь мужчине предстоит найти путь к пониманию психологического отклонения убийцы, чтобы спасти свою жизнь. В то время как жена Крейга пытается понять, что произошло с ее мужем, и предпринимает попытки найти его.

Качество: WEB-DL 1080p | iTunes Version | The.Basement.2018.1080p.WEB-DL.DD5.1.H264-FGT
Продолжительность: 01:28:38

Формат: MKV
Видео кодек: MPEG-4 AVC
Аудио кодек: AC3
Видео: 1920x792 (2.40:1), 23,976 fps, x264 ~4 535 kbps avg, 0.124 bit/pixel
Аудио #1: 48 kHz, AC3 Dolby Digital, 2 (L,R) ch, ~192.00 kbps avg | RUS (HDRezka Studio)
Аудио #2: 48 kHz, AC3 Dolby Digital, 3/2 (L,C,R,l,r) + LFE ch, ~384.00 kbps avg | ENG

Дата премьеры (мир): 14 сентября 2018
Дата премьеры (РФ):

Релиз:


[+] MediaInfo

Общее
Уникальный идентификатор                 : 219962425772210913444992438846066249530 (0xA57B38E4F2CB4E0B549672E68D23CF3A)
Полное имя                               : F:OlLanDGroupThe.Basement.2018.WEB-DL(1080p).OlLanDGroup.mkv
Формат                                   : Matroska
Версия формата                           : Version 4 / Version 2
Размер файла                             : 3,17 Гбайт
Продолжительность                        : 1 ч. 28 м.
Общий поток                              : 5113 Кбит/сек
Название фильма                          : The.Basement.2018   #TorpedoUK#
Дата кодирования                         : UTC 2018-10-02 16:28:42
Программа кодирования                    : mkvmerge v25.0.0 ('Prog Noir') 64-bit
Библиотека кодирования                   : libebml v1.3.6 + libmatroska v1.4.9
Обложка                                  : Yes
Attachments                              : cover_land.jpg / small_cover.jpg / small_cover_land.jpg / cover.jpg

Видео
Идентификатор                            : 1
Формат                                   : AVC
Формат/Информация                        : Advanced Video Codec
Профиль формата                          : High@L4
Параметр CABAC формата                   : Да
Параметр ReFrames формата                : 5 кадров
Идентификатор кодека                     : V_MPEG4/ISO/AVC
Продолжительность                        : 1 ч. 28 м.
Битрейт                                  : 4535 Кбит/сек
Ширина                                   : 1920 пикселей
Высота                                   : 792 пикселя
Соотношение сторон                       : 2,40:1
Режим частоты кадров                     : Постоянный
Частота кадров                           : 23,976 кадра/сек
Цветовое пространство                    : YUV
Субдискретизация насыщенности            : 4:2:0
Битовая глубина                          : 8 бит
Тип развёртки                            : Прогрессивная
Бит/(Пиксели*Кадры)                      : 0.124
Размер потока                            : 2,81 Гбайт (89%)
Заголовок                                : The.Basement.2018.1080p.WEB-DL.DD5.1.H264-FGT
Язык                                     : English
Default                                  : Да
Forced                                   : Нет
Цветовой диапазон                        : Limited
Основные цвета                           : BT.709
Характеристики трансфера                 : BT.709
Коэффициенты матрицы                     : BT.709

Аудио #1
Идентификатор                            : 2
Формат                                   : AC-3
Формат/Информация                        : Audio Coding 3
Расширение режима                        : CM (complete main)
Параметр Endianness формата              : Big
Идентификатор кодека                     : A_AC3
Продолжительность                        : 1 ч. 28 м.
Вид битрейта                             : Постоянный
Битрейт                                  : 192 Кбит/сек
Каналы                                   : 2 канала
Расположение каналов                     : Front: L R
Частота                                  : 48,0 КГц
Частота кадров                           : 31,250 кадров/сек (1536 spf)
Битовая глубина                          : 16 бит
Метод сжатия                             : С потерями
Задержка видео                           : -42 мс.
Размер потока                            : 122 Мбайт (4%)
Заголовок                                : MVO [HDRezka Studio]
Язык                                     : Russian
Default                                  : Да
Forced                                   : Нет

Аудио #2
Идентификатор                            : 3
Формат                                   : AC-3
Формат/Информация                        : Audio Coding 3
Расширение режима                        : CM (complete main)
Параметр Endianness формата              : Big
Идентификатор кодека                     : A_AC3
Продолжительность                        : 1 ч. 28 м.
Вид битрейта                             : Постоянный
Битрейт                                  : 384 Кбит/сек
Каналы                                   : 6 каналов
Расположение каналов                     : Front: L C R, Side: L R, LFE
Частота                                  : 48,0 КГц
Частота кадров                           : 31,250 кадров/сек (1536 spf)
Битовая глубина                          : 16 бит
Метод сжатия                             : С потерями
Задержка видео                           : -42 мс.
Размер потока                            : 243 Мбайт (8%)
Заголовок                                : [Original]
Язык                                     : English
Default                                  : Нет
Forced                                   : Нет

Текст
Идентификатор                            : 4
Формат                                   : UTF-8
Идентификатор кодека                     : S_TEXT/UTF8
Идентификатор кодека/Информация          : UTF-8 Plain Text
Продолжительность                        : 1 ч. 25 м.
Битрейт                                  : 42 бит/сек
Count of elements                        : 1051
Размер потока                            : 26,5 Кбайт (0%)
Заголовок                                : Full
Язык                                     : English
Default                                  : Нет
Forced                                   : Нет

Меню
00:00:00.000                             : en:1
00:12:25.000                             : en:2
00:21:05.000                             : en:3
00:32:13.000                             : en:4
00:47:19.000                             : en:5
01:00:40.000                             : en:6
01:10:21.000                             : en:7
01:25:44.000                             : en:8



Скриншоты:
[+] Всего файлов в раздаче - 1:
The.Basement.2018.WEB-DL(1080p).OlLanDGroup.mkv3.17 GB

Текущая раздача:
ДатаКомментарии    РазмерПиры
2018-10-03 U Подвал / The Basement (2018) WEB-DL 1080p от OlLanDGroup | HDRezka Studio 3.17 GB ↑ 94 ↓ 45

Похожие раздачи по запросу - подвал:
2017-10-10 U Подвал / The Basement (2017) WEB-DLRip | L 1.37 GB ↑ 42 ↓ 28
2017-09-08 U Подвал / The Basement (2017) WEB-DLRip 720р | L 2К2.58 GB ↑ 59 ↓ 50
2017-09-08 U Подвал / The Basement (2017) WEB-DLRip | L 1.37 GB ↑ 93 ↓ 60

Отзывы
Зарегистрируйтесь чтобы добавить комментарий.
Обратная связь
Copyleft ©