↑↓Torrent.by
Поиск
Логин: Регистрация
Пароль: Восстановить пароль
Загрузка...

Зимний Хребет / Winter Ridge (2018) WEB-DL 1080p от OlLanDGroup | HDRezka Studio

Скачать zimniy-hrebet-winter-ridge-2018-web-dl-1080p-ot-ollandgroup-hdrezka-studio.torrent
U Магнитная ссылка Размер: 3.13 GB Раздают: 63 Качают: 30 Добавлен: 2018-10-03 07:22:32
Зимний Хребет / Winter Ridge (2018) WEB-DL 1080p от OlLanDGroup | HDRezka Studio

Зимний Хребет / Winter Ridge
«The end is inevitable. The Date is negotiable»

Год выпуска: 2018
Страна: Великобритания
Производство: Camelot Films, Chris.Hardman Pictures, Nice One Film
Жанр:  Триллер, детектив, криминал

Режиссёр: Дом Ленуар
В ролях: Мэтт Хукингс, Олуэн Катрин Келли, Ханна Уэддингхэм, Майкл МакКелл, Джастин МакДональд, Алан Форд, Иэн Пири, Ноэлин Комиски, Клаудиа Арчер, Элла-роуд

Перевод: Профессиональный (многоголосый, закадровый) | [HDRezka Studio]
Субтитры: Английские (полные)
Реклама: Отсутствует

Описание: События фильма происходят в маленьком провинциальном городке. После того как супругу детектива-констебля Райана сбивает пьяный водитель, она впадает в длительную кому. Спустя 7 месяцев тяжелых переживаний, мужчина решает отвлечь себя от гнетущих мыслей и с головой уходит в работу, тем более что в это время в городе происходят несколько смертей пожилых людей. Вскоре под подозрение попадает местный священник, который убеждал людей перед их смертью отдать свои деньги на восстановление церкви, и психиатр, лечащий пациентов с деменцией.

Качество: WEB-DL 1080p | iTunes Version | Winter.Ridge.2018.1080p.WEB-DL.DD5.1.H264-FGT
Продолжительность: 01:26:44

Формат: MKV
Видео кодек: MPEG-4 AVC
Аудио кодек: AC3
Видео: 1920x800 (2.40:1), 24,000 fps, x264 ~4 584 kbps avg, 0.124 bit/pixel
Аудио #1: 48 kHz, AC3 Dolby Digital, 2 (L,R) ch, ~192.00 kbps avg | RUS (HDRezka Studio)
Аудио #2: 48 kHz, AC3 Dolby Digital, 3/2 (L,C,R,l,r) + LFE ch, ~384.00 kbps avg | ENG

Дата премьеры (мир): 9 февраля 2018
Дата премьеры (РФ):

Релиз:


[+] MediaInfo

Общее
Уникальный идентификатор                 : 153422863110424646149503081602907277474 (0x736C2B2ACC585F23CAE8D565B74688A2)
Полное имя                               : F:OlLanDGroupWinter.Ridge.2018.WEB-DL(1080p).OlLanDGroup.mkv
Формат                                   : Matroska
Версия формата                           : Version 4 / Version 2
Размер файла                             : 3,13 Гбайт
Продолжительность                        : 1 ч. 26 м.
Общий поток                              : 5162 Кбит/сек
Название фильма                          : Winter.Ridge.2018   #TorpedoUK#
Дата кодирования                         : UTC 2018-10-02 15:51:14
Программа кодирования                    : mkvmerge v25.0.0 ('Prog Noir') 64-bit
Библиотека кодирования                   : libebml v1.3.6 + libmatroska v1.4.9

Видео
Идентификатор                            : 1
Формат                                   : AVC
Формат/Информация                        : Advanced Video Codec
Профиль формата                          : High@L4
Параметр CABAC формата                   : Да
Параметр ReFrames формата                : 5 кадров
Идентификатор кодека                     : V_MPEG4/ISO/AVC
Продолжительность                        : 1 ч. 26 м.
Битрейт                                  : 4584 Кбит/сек
Ширина                                   : 1920 пикселей
Высота                                   : 800 пикселей
Соотношение сторон                       : 2,40:1
Режим частоты кадров                     : Постоянный
Частота кадров                           : 24,000 кадра/сек
Цветовое пространство                    : YUV
Субдискретизация насыщенности            : 4:2:0
Битовая глубина                          : 8 бит
Тип развёртки                            : Прогрессивная
Бит/(Пиксели*Кадры)                      : 0.124
Размер потока                            : 2,78 Гбайт (89%)
Язык                                     : English
Default                                  : Да
Forced                                   : Нет
Цветовой диапазон                        : Limited
Основные цвета                           : BT.709
Характеристики трансфера                 : BT.709
Коэффициенты матрицы                     : BT.709

Аудио #1
Идентификатор                            : 2
Формат                                   : AC-3
Формат/Информация                        : Audio Coding 3
Расширение режима                        : CM (complete main)
Параметр Endianness формата              : Big
Идентификатор кодека                     : A_AC3
Продолжительность                        : 1 ч. 26 м.
Вид битрейта                             : Постоянный
Битрейт                                  : 192 Кбит/сек
Каналы                                   : 2 канала
Расположение каналов                     : Front: L R
Частота                                  : 48,0 КГц
Частота кадров                           : 31,250 кадров/сек (1536 spf)
Битовая глубина                          : 16 бит
Метод сжатия                             : С потерями
Задержка видео                           : -42 мс.
Размер потока                            : 119 Мбайт (4%)
Заголовок                                : MVO [HDRezka Studio]
Язык                                     : Russian
Default                                  : Да
Forced                                   : Нет

Аудио #2
Идентификатор                            : 3
Формат                                   : AC-3
Формат/Информация                        : Audio Coding 3
Расширение режима                        : CM (complete main)
Параметр Endianness формата              : Big
Идентификатор кодека                     : A_AC3
Продолжительность                        : 1 ч. 26 м.
Вид битрейта                             : Постоянный
Битрейт                                  : 384 Кбит/сек
Каналы                                   : 6 каналов
Расположение каналов                     : Front: L C R, Side: L R, LFE
Частота                                  : 48,0 КГц
Частота кадров                           : 31,250 кадров/сек (1536 spf)
Битовая глубина                          : 16 бит
Метод сжатия                             : С потерями
Задержка видео                           : -42 мс.
Размер потока                            : 238 Мбайт (7%)
Заголовок                                : [Original]
Язык                                     : English
Default                                  : Нет
Forced                                   : Нет

Текст
Идентификатор                            : 4
Формат                                   : UTF-8
Идентификатор кодека                     : S_TEXT/UTF8
Идентификатор кодека/Информация          : UTF-8 Plain Text
Продолжительность                        : 1 ч. 20 м.
Битрейт                                  : 49 бит/сек
Count of elements                        : 945
Размер потока                            : 29,1 Кбайт (0%)
Заголовок                                : Full
Язык                                     : English
Default                                  : Нет
Forced                                   : Нет

Меню
00:00:00.000                             : en:1
00:06:52.000                             : en:2
00:14:22.000                             : en:3
00:20:40.000                             : en:4
00:28:42.000                             : en:5
00:36:21.000                             : en:6
00:44:07.000                             : en:7
00:51:03.000                             : en:8
00:57:47.000                             : en:9
01:04:17.000                             : en:10
01:12:24.000                             : en:11
01:20:50.000                             : en:12



Скриншоты:
[+] Всего файлов в раздаче - 1:
Winter.Ridge.2018.WEB-DL(1080p).OlLanDGroup.mkv3.13 GB

Текущая раздача:
ДатаКомментарии    РазмерПиры
2018-10-03 U Зимний Хребет / Winter Ridge (2018) WEB-DL 1080p от OlLanDGroup | HDRezka Studio 3.13 GB ↑ 63 ↓ 30

Показать еще раздачи по запросу зимний:
2018-09-30 U Зимний Хребет / Winter Ridge (2018) WEBRip | L2 1.18 GB ↑ 124 ↓ 20
2018-09-29 U Зимний Хребет / Winter Ridge (2018) WEBRip 720p | L2 2.00 GB ↑ 122 ↓ 41
2018-07-30 U Зимний вечер в Гаграх (1985) WEB-DLRip 720p от KORSAR 3.31 GB ↑ 106 ↓ 28
2018-01-07 U Сборник - Первый танцевальный Vol.14 - Зимний (2018) MP3 242.78 MB ↑ 55 ↓ 12
2017-12-31 U Сборник - Зимний блатнячок New 2018 (2017) MP3 676.46 MB ↑ 132 ↓ 45
2017-12-10 U Сборник - Первый танцевальный, Vol. 14 [Зимний] (2017) MP3 242.78 MB ↑ 67 ↓ 26
2017-12-09 U Лига смеха. Зимний кубок - 2 [03x16] (2017) WEBRip 1.31 GB ↑ 202 ↓ 42

Отзывы
Зарегистрируйтесь чтобы добавить комментарий.
Обратная связь
Copyleft ©