↑↓Torrent.by
Поиск
Логин: Регистрация
Пароль: Восстановить пароль
Загрузка...

Как женить холостяка / Destination Wedding (2018) WEB-DLRip-AVC от OlLanDGroup | D, P | iTunes

Скачать kak-zhenit-holostyaka-destination-wedding-2018-web-dlrip-avc-ot-ollandgroup-d-p-itunes.torrent
U Магнитная ссылка Размер: 1.69 GB Раздают: 79 Качают: 29 Добавлен: 2018-10-03 12:14:13
Как женить холостяка / Destination Wedding (2018) WEB-DLRip-AVC от OlLanDGroup | D, P | iTunes

Как женить холостяка / Destination Wedding
«Check your baggage»

Год выпуска: 2018
Страна: США
Производство: Chapman-Leonard, CISS, Company 3
Жанр:  Драма, мелодрама, комедия

Режиссёр: Виктор Левин
В ролях: Киану Ривз, Вайнона Райдер, Грег Люси, Тед Дюбо, Д. Рош Райт, Курт Дюбо, Донна Линн Джонс, Джеймс Галлардо, Скотт Эндрюс

Перевод: Профессиональный (многоголосый, закадровый) | HDRezka Studio
Субтитры: Английские (полные)
Реклама: Отсутствует

Описание: Закоренелый холостяк Фрэнк и коварная соблазнительница Линдси приглашены на одну свадьбу. Странным образом они везде оказываются вместе: в самолете, такси, в соседних номерах и за столом. Похоже, кто-то придумал хитроумный план поймать их в любовные сети и наконец женить холостяка.

Качество: WEB-DLRip-AVC | iTunes Version | Destination.Wedding.2018.1080p.WEB-DL.DD5.1.H264-FGT
Продолжительность: 01:26:46

Формат: MKV
Видео кодек: MPEG-4 AVC
Аудио кодек: AC3
Видео: 1024x428 (2.40:1), 23,976 fps, x264 ~1 831 kbps avg, 0.174 bit/pixel
Аудио #1: 48 kHz, AC3 Dolby Digital Plus, 3/2 (L,C,R,l,r) + LFE ch, ~384.00 kbps avg | RUS (iTunes)
Аудио #2: 48 kHz, AC3 Dolby Digital, 2 (L,R) ch, ~192.00 kbps avg | RUS (HDRezka Studio)
Аудио #3: 48 kHz, AC3 Dolby Digital Plus, 3/2 (L,C,R,l,r) + LFE ch, ~384.00 kbps avg | ENG

Дата премьеры (мир): 2 августа 2018
Дата премьеры (РФ): 30 августа 2018, «Экспонента»

Релиз:


[+] MediaInfo

Общее
Уникальный идентификатор                 : 90578923796358834141467959996720486264 (0x4424DDBD1E7A1D8BEA87DC2EFAF21778)
Полное имя                               : F:OlLanDGroupDestination.Wedding.2018.WEB-DLRip(AVC).OlLanDGroup.mkv
Формат                                   : Matroska
Версия формата                           : Version 4 / Version 2
Размер файла                             : 1,69 Гбайт
Продолжительность                        : 1 ч. 26 м.
Общий поток                              : 2790 Кбит/сек
Название фильма                          : Destination.Wedding.2018   #TorpedoUK#
Дата кодирования                         : UTC 2018-10-02 14:30:15
Программа кодирования                    : mkvmerge v25.0.0 ('Prog Noir') 64-bit
Библиотека кодирования                   : libebml v1.3.6 + libmatroska v1.4.9
Обложка                                  : Yes
Attachments                              : small_cover_land.jpg / cover.jpg / cover_land.jpg / small_cover.jpg

Видео
Идентификатор                            : 1
Формат                                   : AVC
Формат/Информация                        : Advanced Video Codec
Профиль формата                          : High@L4.1
Параметр CABAC формата                   : Да
Параметр ReFrames формата                : 10 кадров
Идентификатор кодека                     : V_MPEG4/ISO/AVC
Продолжительность                        : 1 ч. 26 м.
Битрейт                                  : 1831 Кбит/сек
Ширина                                   : 1024 пикселя
Высота                                   : 428 пикселей
Соотношение сторон                       : 2,40:1
Режим частоты кадров                     : Постоянный
Частота кадров                           : 23,976 (24000/1001) кадра/сек
Цветовое пространство                    : YUV
Субдискретизация насыщенности            : 4:2:0
Битовая глубина                          : 8 бит
Тип развёртки                            : Прогрессивная
Бит/(Пиксели*Кадры)                      : 0.174
Размер потока                            : 1,11 Гбайт (66%)
Библиотека кодирования                   : x264 core 146 r2538 121396c
Настройки программы                      : cabac=1 / ref=10 / deblock=1:-2:-3 / analyse=0x3:0x113 / me=umh / subme=11 / psy=1 / psy_rd=0.95:0.07 / mixed_ref=1 / me_range=48 / chroma_me=1 / trellis=2 / 8x8dct=1 / cqm=0 / deadzone=21,11 / fast_pskip=1 / chroma_qp_offset=-3 / threads=6 / lookahead_threads=1 / sliced_threads=0 / nr=0 / decimate=1 / interlaced=0 / bluray_compat=0 / constrained_intra=0 / bframes=10 / b_pyramid=2 / b_adapt=2 / b_bias=0 / direct=3 / weightb=1 / open_gop=0 / weightp=2 / keyint=240 / keyint_min=23 / scenecut=40 / intra_refresh=0 / rc_lookahead=40 / rc=2pass / mbtree=0 / bitrate=1831 / ratetol=1.0 / qcomp=0.60 / qpmin=0 / qpmax=69 / qpstep=4 / cplxblur=20.0 / qblur=0.5 / vbv_maxrate=50000 / vbv_bufsize=62500 / nal_hrd=none / filler=0 / ip_ratio=1.40 / pb_ratio=1.30 / aq=1:1.00
Default                                  : Да
Forced                                   : Нет

Аудио #1
Идентификатор                            : 2
Формат                                   : AC-3
Формат/Информация                        : Audio Coding 3
Расширение режима                        : CM (complete main)
Параметр Endianness формата              : Big
Идентификатор кодека                     : A_AC3
Продолжительность                        : 1 ч. 26 м.
Вид битрейта                             : Постоянный
Битрейт                                  : 384 Кбит/сек
Каналы                                   : 6 каналов
Расположение каналов                     : Front: L C R, Side: L R, LFE
Частота                                  : 48,0 КГц
Частота кадров                           : 31,250 кадров/сек (1536 spf)
Битовая глубина                          : 16 бит
Метод сжатия                             : С потерями
Размер потока                            : 238 Мбайт (14%)
Заголовок                                : DUB [iTunes]
Язык                                     : Russian
Default                                  : Да
Forced                                   : Нет

Аудио #2
Идентификатор                            : 3
Формат                                   : AC-3
Формат/Информация                        : Audio Coding 3
Расширение режима                        : CM (complete main)
Параметр Endianness формата              : Big
Идентификатор кодека                     : A_AC3
Продолжительность                        : 1 ч. 26 м.
Вид битрейта                             : Постоянный
Битрейт                                  : 192 Кбит/сек
Каналы                                   : 2 канала
Расположение каналов                     : Front: L R
Частота                                  : 48,0 КГц
Частота кадров                           : 31,250 кадров/сек (1536 spf)
Битовая глубина                          : 16 бит
Метод сжатия                             : С потерями
Размер потока                            : 119 Мбайт (7%)
Заголовок                                : MVO [HDRezka Studio]
Язык                                     : Russian
Default                                  : Нет
Forced                                   : Нет

Аудио #3
Идентификатор                            : 4
Формат                                   : AC-3
Формат/Информация                        : Audio Coding 3
Расширение режима                        : CM (complete main)
Параметр Endianness формата              : Big
Идентификатор кодека                     : A_AC3
Продолжительность                        : 1 ч. 26 м.
Вид битрейта                             : Постоянный
Битрейт                                  : 384 Кбит/сек
Каналы                                   : 6 каналов
Расположение каналов                     : Front: L C R, Side: L R, LFE
Частота                                  : 48,0 КГц
Частота кадров                           : 31,250 кадров/сек (1536 spf)
Битовая глубина                          : 16 бит
Метод сжатия                             : С потерями
Размер потока                            : 238 Мбайт (14%)
Заголовок                                : [Original]
Язык                                     : English
Default                                  : Нет
Forced                                   : Нет

Текст
Идентификатор                            : 5
Формат                                   : UTF-8
Идентификатор кодека                     : S_TEXT/UTF8
Идентификатор кодека/Информация          : UTF-8 Plain Text
Продолжительность                        : 1 ч. 20 м.
Битрейт                                  : 86 бит/сек
Count of elements                        : 1384
Размер потока                            : 51,4 Кбайт (0%)
Заголовок                                : Full
Язык                                     : English
Default                                  : Нет
Forced                                   : Нет

Меню
00:00:00.000                             : en:1
00:05:14.105                             : en:2
00:09:08.255                             : en:3
00:15:54.703                             : en:4
00:20:35.066                             : en:5
00:24:38.851                             : en:6
00:28:39.299                             : en:7
00:31:59.415                             : en:8
00:33:30.214                             : en:9
00:37:30.037                             : en:10
00:39:33.952                             : en:11
00:45:11.664                             : en:12
00:49:47.189                             : en:13
00:50:47.082                             : en:14
00:58:26.916                             : en:15
01:06:52.212                             : en:16
01:10:58.833                             : en:17
01:15:55.713                             : en:18
01:19:03.484                             : en:19
01:21:41.475                             : en:20



Скриншоты:
[+] Всего файлов в раздаче - 1:
Destination.Wedding.2018.WEB-DLRip(AVC).OlLanDGroup.mkv1.69 GB

Текущая раздача:
ДатаКомментарии    РазмерПиры
2018-10-03 U Как женить холостяка / Destination Wedding (2018) WEB-DLRip-AVC от OlLanDGroup | D, P | iTunes 1 К 1.69 GB ↑ 79 ↓ 29

Показать еще раздачи по запросу женить:
2018-10-03 U Как женить холостяка / Destination Wedding (2018) WEB-DL 720p от TeamHD | iTunes 2.96 GB ↑ 210 ↓ 57
2018-10-03 U Как женить холостяка / Destination Wedding (2018) WEB-DL 1080p от TeamHD | iTunes 3.26 GB ↑ 782 ↓ 183
2018-10-03 U Как женить холостяка / Destination Wedding (2018) WEB-DLRip от MegaPeer | iTunes 1.46 GB ↑ 1016 ↓ 280
2018-09-19 U Как женить холостяка / Destination Wedding (2018) WEB-DLRip-AVC | HDrezka Studio 743.61 MB ↑ 72 ↓ 41
2018-09-17 U Как женить холостяка / Destination Wedding (2018) WEB-DLRip от MegaPeer | HDrezka Studio 1.46 GB ↑ 290 ↓ 158
2018-09-17 U Как женить холостяка / Destination Wedding (2018) WEB-DL 1080p от OlLanDGroup | HDRezka Studio 3.15 GB ↑ 366 ↓ 208
2017-09-30 U Приказано женить [01-02 из 02] (2012) WEB-DLRip от Files-x 1.17 GB ↑ 180 ↓ 63

Отзывы
fruct
скучный фильм!

Зарегистрируйтесь чтобы добавить комментарий.
Обратная связь
Copyleft ©