↑↓Torrent.by
Поиск
Логин: Регистрация
Пароль: Восстановить пароль
Загрузка...

Мег: Монстр глубины / The Meg (2018) WEBRip | HDrezka Studio

Скачать meg-monstr-glubiny-the-2018-webrip-hdrezka-studio.torrent
U Магнитная ссылка Размер: 1.37 GB Раздают: 1857 Качают: 515 Добавлен: 2018-10-03 16:04:00
Мег: Монстр глубины / The Meg (2018) WEBRip | HDrezka Studio

Мег: Монстр глубины / The Meg

Страна: Китай  США
Производство: Apelles Entertainment, Di Bonaventura Pictures, Gravity Pictures, Maeday Productions
Год выпуска: 2018
Жанр:  ужасы, фантастика, боевик, триллер
Продолжительность: 01:49:22

Режиссер: Джон Тёртлтауб
Авторы сценария: Дин Георгарис, Джон Хобер, Эрих Хобер

В ролях: Джейсон Стэйтем, Ли Бинбин, Рэйн Уилсон, Клифф Кёртис, Уинстон Чао, Шуя Софиа Цай, Руби Роуз, Пейдж Кеннеди, Роберт Тейлор

Описание: Глубоководный батискаф, осуществляющий наблюдение в рамках международной программы по изучению подводной жизни, был атакован огромным существом, которое все считали давно вымершим. Неисправный аппарат теперь лежит на дне глубочайшей впадины Тихого океана… с оказавшимся в ловушке экипажем. Их время на исходе. Китайский океанограф-новатор, несмотря на протесты его дочери Суинь, зовет спасателя-подводника Джонаса Тейлора, чтобы тот помог спасти команду и океан от невиданной угрозы — доисторической 23-метровой акулы, мегалодона. Никто и подумать не мог, что много лет назад Тейлор уже сталкивался с этим чудовищным созданием...

Перевод: Профессиональный (многоголосый, закадровый) | HDrezka Studio
Субтитры: иероглифы (вшитые)

Качество: WEBRip
Формат: AVI
Видео кодек: XviD
Аудио кодек: АС3
Видео: 720x304 (2.35:1), 24.000 fps, XviD ~1 591 kbps avg
Аудио: 48.0 kHz, AC3 Dolby Digital, 2/0 (L,R) ch, ~192 kbps

Бюджет: $130 000 000
Дата премьеры (мир): 8 августа 2018
Дата премьеры (РФ): 9 августа 2018, «Каро-Премьер»


[+] Media Info
General
Complete name                  : The Meg (2018)_WEBRip_HDrezkaStudio.avi
Format                         : AVI
Format/Info                    : Audio Video Interleave
File size                      : 1.37 GiB
Duration                       : 1 h 49 min
Overall bit rate               : 1 792 kb/s
Writing application            : VirtualDubMod 1.5.10.3 | (build 2550/release)
Writing library                : VirtualDubMod build 2550/release

Video
ID                             : 0
Format                         : MPEG-4 Visual
Format profile                 : Advanced Simple@L5
Format settings, BVOP          : 2
Format settings, QPel          : No
Format settings, GMC           : No warppoints
Format settings, Matrix        : Custom
Codec ID                       : XVID
Codec ID/Hint                  : XviD
Duration                       : 1 h 49 min
Bit rate                       : 1 591 kb/s
Width                          : 720 pixels
Height                         : 304 pixels
Display aspect ratio           : 2.35:1
Frame rate                     : 24.000 FPS
Color space                    : YUV
Chroma subsampling             : 4:2:0
Bit depth                      : 8 bits
Scan type                      : Progressive
Compression mode               : Lossy
Bits/(Pixel*Frame)             : 0.303
Stream size                    : 1.22 GiB (89%)
Writing library                : XviD 1.2.1 (UTC 2008-12-04)

Audio
ID                             : 1
Format                         : AC-3
Format/Info                    : Audio Coding 3
Format settings, Endianness    : Big
Codec ID                       : 2000
Duration                       : 1 h 49 min
Bit rate mode                  : Constant
Bit rate                       : 192 kb/s
Channel(s)                     : 2 channels
Channel positions              : Front: L R
Sampling rate                  : 48.0 kHz
Frame rate                     : 31.250 FPS (1536 SPF)
Bit depth                      : 16 bits
Compression mode               : Lossy
Stream size                    : 150 MiB (11%)
Alignment                      : Split accross interleaves
Interleave, duration           : 42  ms (1.00 video frame)
Interleave, preload duration   : 500  ms
Service kind                   : Complete Main



Скриншоты:
[+] Всего файлов в раздаче - 1:
The Meg (2018)_WEBRip_HDrezkaStudio.avi1.37 GB

Текущая раздача:
ДатаКомментарии    РазмерПиры
2018-10-03 U Мег: Монстр глубины / The Meg (2018) WEBRip | HDrezka Studio 1.37 GB ↑ 1857 ↓ 515

Показать еще раздачи по запросу монстр:
2018-10-06 U Мег: Монстр глубины / The Meg (2018) WEBRip 1080p | HDrezka Studio 5.32 GB ↑ 765 ↓ 378
2018-10-03 U Мег: Монстр глубины / The Meg (2018) HDTVRip от Dalemake | HDrezka Studio 1К1.45 GB ↑ 741 ↓ 199
2018-10-03 U Мег: Монстр глубины / The Meg (2018) WEBRip 1080р | HDrezka Studio 3.80 GB ↑ 738 ↓ 400
2018-07-14 U Монстр / Monster [S01] (2017) WEBRip | D 5.09 GB ↑ 110 ↓ 75
2018-03-02 U Плюшевый монстр / Lino: Uma Aventura de Sete Vidas (2017) WEB-DLRip | iTunes 698.97 MB ↑ 168 ↓ 17
2018-03-01 U Плюшевый монстр / Lino: Uma Aventura de Sete Vidas (2017) WEB-DLRip от R.G.Resident | iTunes 1.37 GB ↑ 115 ↓ 38
2018-03-01 U Плюшевый монстр / Lino: Uma Aventura de Sete Vidas (2017) WEB-DL 1080p | iTunes 3.56 GB ↑ 216 ↓ 67

Отзывы
Зарегистрируйтесь чтобы добавить комментарий.
Обратная связь
Copyleft ©