↑↓Torrent.by
Поиск
Логин: Регистрация
Пароль: Восстановить пароль
Загрузка...

Мег: Монстр глубины / The Meg (2018) WEBRip 1080р | HDrezka Studio

Скачать meg-monstr-glubiny-the-2018-webrip-1080r-hdrezka-studio.torrent
U Магнитная ссылка Размер: 3.80 GB Раздают: 738 Качают: 400 Добавлен: 2018-10-03 16:04:06
Мег: Монстр глубины / The Meg (2018) WEBRip 1080р | HDrezka Studio

Мег: Монстр глубины / The Meg

Страна: Китай  США
Производство: Apelles Entertainment, Di Bonaventura Pictures, Gravity Pictures, Maeday Productions
Год выпуска: 2018
Жанр:  ужасы, фантастика, боевик, триллер
Продолжительность: 01:49:22

Режиссер: Джон Тёртлтауб
Авторы сценария: Дин Георгарис, Джон Хобер, Эрих Хобер

В ролях: Джейсон Стэйтем, Ли Бинбин, Рэйн Уилсон, Клифф Кёртис, Уинстон Чао, Шуя Софиа Цай, Руби Роуз, Пейдж Кеннеди, Роберт Тейлор

Описание: Глубоководный батискаф, осуществляющий наблюдение в рамках международной программы по изучению подводной жизни, был атакован огромным существом, которое все считали давно вымершим. Неисправный аппарат теперь лежит на дне глубочайшей впадины Тихого океана… с оказавшимся в ловушке экипажем. Их время на исходе. Китайский океанограф-новатор, несмотря на протесты его дочери Суинь, зовет спасателя-подводника Джонаса Тейлора, чтобы тот помог спасти команду и океан от невиданной угрозы — доисторической 23-метровой акулы, мегалодона. Никто и подумать не мог, что много лет назад Тейлор уже сталкивался с этим чудовищным созданием...

Перевод: Профессиональный (многоголосый, закадровый) | HDrezka Studio
Субтитры: иероглифы (вшитые)

Качество: WEBRip 1080р
Формат: МКV
Видео кодек: AVC
Аудио кодек: АС3
Видео: 1920x800 (2.40:1), 24.000 fps, MPEG-4 AVC ~4 645 kbps avg
Аудио №1: 48.0 kHz, AC3 Dolby Digital, 2/0 (L,R) ch, ~192 kbps | RUS
Аудио №2: 48.0 kHz, AC3 Dolby Digital, 2/0 (L,R) ch, ~192 kbps | ENG

Бюджет: $130 000 000
Дата премьеры (мир): 8 августа 2018
Дата премьеры (РФ): 9 августа 2018, «Каро-Премьер»


[+] Media Info
General
Unique ID                      : 242131687478315390672244960372920416482 (0xB628DDE2AB5B2F8B9D829E2FE537F8E2)
Complete name                  : The Meg (2018)_WEBRip 1080р_HDrezkaStudio.mkv
Format                         : Matroska
Format version                 : Version 2
File size                      : 3.80 GiB
Duration                       : 1 h 49 min
Overall bit rate               : 4 972 kb/s
Encoded date                   : UTC 2018-10-03 04:39:40 / UTC 2018-09-16T16:54:30Z
Writing application            : mkvmerge v7.8.0 ('River Man') 32bit built on Apr  3 2015 12:11:22
Writing library                : libebml v1.3.1 + libmatroska v1.4.2 / Lavf55.12.0

Video
ID                             : 1
Format                         : AVC
Format/Info                    : Advanced Video Codec
Format profile                 : High@L4.1
Format settings, CABAC         : Yes
Format settings, RefFrames     : 4 frames
Codec ID                       : V_MPEG4/ISO/AVC
Duration                       : 1 h 49 min
Bit rate                       : 4 645 kb/s
Width                          : 1 920 pixels
Height                         : 800 pixels
Display aspect ratio           : 2.40:1
Frame rate mode                : Constant
Frame rate                     : 24.000 FPS
Color space                    : YUV
Chroma subsampling             : 4:2:0
Bit depth                      : 8 bits
Scan type                      : Progressive
Bits/(Pixel*Frame)             : 0.126
Stream size                    : 3.43 GiB (90%)
Writing library                : x264 core 142 r2479 dd79a61
Encoding settings              : cabac=1 / ref=1 / deblock=1:0:0 / analyse=0x3:0x113 / me=hex / subme=2 / psy=1 / psy_rd=1.00:0.00 / mixed_ref=0 / me_range=16 / chroma_me=1 / trellis=0 / 8x8dct=1 / cqm=0 / deadzone=21,11 / fast_pskip=1 / chroma_qp_offset=0 / threads=18 / lookahead_threads=6 / sliced_threads=0 / nr=0 / decimate=1 / interlaced=0 / bluray_compat=0 / constrained_intra=0 / bframes=3 / b_pyramid=2 / b_adapt=1 / b_bias=0 / direct=1 / weightb=1 / open_gop=0 / weightp=1 / keyint=240 / keyint_min=24 / scenecut=40 / intra_refresh=0 / rc_lookahead=10 / rc=abr / mbtree=1 / bitrate=4645 / ratetol=1.0 / qcomp=0.60 / qpmin=0 / qpmax=69 / qpstep=4 / vbv_maxrate=62500 / vbv_bufsize=78125 / nal_hrd=none / filler=0 / ip_ratio=1.40 / aq=1:1.00
Default                        : Yes
Forced                         : No
Color range                    : Limited
Color primaries                : BT.709
Transfer characteristics       : BT.709
Matrix coefficients            : BT.709
Statistics Tags Issue          : mkvmerge v25.0.0 ('Prog Noir') 64-bit 2018-09-16 17:10:23 / mkvmerge v7.8.0 ('River Man') 32bit built on Apr  3 2015 12:11:22 2018-10-03 04:39:40 / UTC 2018-09-16T16:54:30Z
FromStats_BitRate              : 4586226
FromStats_Duration             : 01:49:21.542000000
FromStats_FrameCount           : 157477
FromStats_StreamSize           : 3761589892

Audio #1
ID                             : 2
Format                         : AC-3
Format/Info                    : Audio Coding 3
Format settings, Endianness    : Big
Codec ID                       : A_AC3
Duration                       : 1 h 49 min
Bit rate mode                  : Constant
Bit rate                       : 192 kb/s
Channel(s)                     : 2 channels
Channel positions              : Front: L R
Sampling rate                  : 48.0 kHz
Frame rate                     : 31.250 FPS (1536 SPF)
Bit depth                      : 16 bits
Compression mode               : Lossy
Delay relative to video        : -83 ms
Stream size                    : 150 MiB (4%)
Language                       : Russian
Service kind                   : Complete Main
Default                        : Yes
Forced                         : Yes

Audio #2
ID                             : 3
Format                         : AC-3
Format/Info                    : Audio Coding 3
Format settings, Endianness    : Big
Codec ID                       : A_AC3
Duration                       : 1 h 49 min
Bit rate mode                  : Constant
Bit rate                       : 192 kb/s
Channel(s)                     : 2 channels
Channel positions              : Front: L R
Sampling rate                  : 48.0 kHz
Frame rate                     : 31.250 FPS (1536 SPF)
Bit depth                      : 16 bits
Compression mode               : Lossy
Delay relative to video        : -5 ms
Stream size                    : 150 MiB (4%)
Language                       : English
Service kind                   : Complete Main
Default                        : No
Forced                         : No
Statistics Tags Issue          : mkvmerge v25.0.0 ('Prog Noir') 64-bit 2018-09-16 17:10:23 / mkvmerge v7.8.0 ('River Man') 32bit built on Apr  3 2015 12:11:22 2018-10-03 04:39:40 / UTC 2018-09-16T16:54:30Z
FromStats_BitRate              : 192000
FromStats_Duration             : 01:49:21.536000000
FromStats_FrameCount           : 205048
FromStats_StreamSize           : 157476864



Скриншоты:
[+] Всего файлов в раздаче - 1:
The Meg (2018)_WEBRip 1080р_HDrezkaStudio.mkv3.80 GB

Текущая раздача:
ДатаКомментарии    РазмерПиры
2018-10-03 U Мег: Монстр глубины / The Meg (2018) WEBRip 1080р | HDrezka Studio 3.80 GB ↑ 738 ↓ 400

Показать еще раздачи по запросу монстр:
2018-10-06 U Мег: Монстр глубины / The Meg (2018) WEBRip 1080p | HDrezka Studio 5.32 GB ↑ 765 ↓ 378
2018-10-03 U Мег: Монстр глубины / The Meg (2018) HDTVRip от Dalemake | HDrezka Studio 1К1.45 GB ↑ 741 ↓ 199
2018-10-03 U Мег: Монстр глубины / The Meg (2018) WEBRip | HDrezka Studio 1.37 GB ↑ 1857 ↓ 515
2018-07-14 U Монстр / Monster [S01] (2017) WEBRip | D 5.09 GB ↑ 110 ↓ 75
2018-03-02 U Плюшевый монстр / Lino: Uma Aventura de Sete Vidas (2017) WEB-DLRip | iTunes 698.97 MB ↑ 168 ↓ 17
2018-03-01 U Плюшевый монстр / Lino: Uma Aventura de Sete Vidas (2017) WEB-DLRip от R.G.Resident | iTunes 1.37 GB ↑ 115 ↓ 38
2018-03-01 U Плюшевый монстр / Lino: Uma Aventura de Sete Vidas (2017) WEB-DL 1080p | iTunes 3.56 GB ↑ 216 ↓ 67

Отзывы
Зарегистрируйтесь чтобы добавить комментарий.
Обратная связь
Copyleft ©