↑↓Torrent.by
Поиск
Логин: Регистрация
Пароль: Восстановить пароль
Загрузка...

Канцелярская крыса [01-12 из 16] (2018) WEBRip от GeneralFilm

Скачать kancelyarskaya-krysa-01-12-iz-16-2018-webrip-ot-generalfilm.torrent
U Магнитная ссылка Размер: 6.53 GB Раздают: 73 Качают: 243 Добавлен: 2018-10-03 16:04:31
Канцелярская крыса [01-12 из 16] (2018) WEBRip от GeneralFilm

Оригинальное название: Канцелярская крыса
Год выпуска: 2018
Жанр:  Детектив, криминал
Режиссер: Иван Глубоков, Алан Дзоциев
В ролях: Алексей Кравченко, Константин Стрельников, Ингрид Олеринская, Елена Полякова, Алексей Нилов, Вадим Сквирский, Роман Жилкин, Валерий Гришко, Андрей Павловец, Екатерина Рокотова, Сергей Кошонин, Андрей Полищук, Дмитрий Сутырин

О фильме:
Сотрудника полицейского архива майора Андрея Вершинина переводят с повышением в приграничный город Портовый. Вершинину предстоит занять должность руководителя УВД вместо недавно погибшего полковника Авдеева. Нового начальника встречают холодно: подчиненные почти открыто с ним конфликтуют, а пресса и общественность, взволнованные недавней серией ограблений, просто возмущены этим назначением. Единственным верным соратником Вершинина становится журналистка Анна Логинова: вместе они должны разобраться в происходящем в городе беззаконии. За короткий срок герою предстоит доказать свою компетентность в раскрытии преступлений и не отступиться от дела даже в атмосфере всеобщего недоверия.

Страна: Россия
Студия: «Триикс медиа» по заказу телеканала НТВ
Продолжительность: 12 x ~ 00:50:00
Перевод: Не требуется
Субтитры: нет

Файл
Формат: avi
Качество: WEBRip
Видео: XviD build 73, 720x352 (16:9), 25.000 fps, ~ 1400 Kbps (~ 0.220 bit/pixel)
Звук: 48.0 kHz, AC3, 2/0 ch, 192 kbps

Релиз:


[+] MediaInfo
General
Complete name               : D:RazdachiKanceljarskaja.Krysa.2018.XviD.WEBRip.GeneralFilmSerija.01.avi
Format                      : AVI
Format/Info                 : Audio Video Interleave
File size                   : 557 MiB
Duration                    : 50 min 34 s
Overall bit rate            : 1 540 kb/s
Writing application         : VirtualDubMod 1.5.10.3 | www.virtualdub-fr.org || (build 2550/release)
Writing library             : VirtualDubMod build 2550/release

Video
ID                          : 0
Format                      : MPEG-4 Visual
Format profile              : Advanced Simple@L5
Format settings, BVOP       : 1
Format settings, QPel       : No
Format settings, GMC        : No warppoints
Format settings, Matrix     : Custom
Codec ID                    : XVID
Codec ID/Hint               : XviD
Duration                    : 50 min 34 s
Bit rate                    : 1 338 kb/s
Width                       : 720 pixels
Height                      : 352 pixels
Display aspect ratio        : 2.045
Frame rate                  : 25.000 FPS
Color space                 : YUV
Chroma subsampling          : 4:2:0
Bit depth                   : 8 bits
Scan type                   : Progressive
Compression mode            : Lossy
Bits/(Pixel*Frame)          : 0.211
Stream size                 : 484 MiB (87%)
Writing library             : XviD 73

Audio
ID                          : 1
Format                      : AC-3
Format/Info                 : Audio Coding 3
Format settings, Endianness : Big
Codec ID                    : 2000
Duration                    : 50 min 34 s
Bit rate mode               : Constant
Bit rate                    : 192 kb/s
Channel(s)                  : 2 channels
Channel positions           : Front: L R
Sampling rate               : 48.0 kHz
Frame rate                  : 31.250 FPS (1536 SPF)
Bit depth                   : 16 bits
Compression mode            : Lossy
Stream size                 : 69.4 MiB (12%)
Alignment                   : Split accross interleaves
Interleave, duration        : 40  ms (1.00 video frame)
Interleave, preload duratio : 500  ms
Service kind                : Complete Main



Скриншоты:
[+] Всего файлов в раздаче - 12:
Serija.01.avi557.19 MB
Serija.02.avi557.08 MB
Serija.03.avi556.89 MB
Serija.04.avi557.54 MB
Serija.05.avi557.28 MB
Serija.06.avi557.01 MB
Serija.07.avi556.94 MB
Serija.08.avi557.15 MB
Serija.09.avi556.93 MB
Serija.10.avi556.78 MB
Serija.11.avi557.12 MB
Serija.12.avi556.76 MB

Текущая раздача:
ДатаКомментарии    РазмерПиры
2018-10-03 U Канцелярская крыса [01-12 из 16] (2018) WEBRip от GeneralFilm 6.53 GB ↑ 73 ↓ 243

Показать еще раздачи по запросу канцелярская:
2018-10-05 U Канцелярская крыса [01-16 из 16] (2018) WEBRip 720p от GeneralFilm 20.43 GB ↑ 99 ↓ 226
2018-10-05 U Канцелярская крыса [01-16 из 16] (2018) WEBRip от GeneralFilm 8.70 GB ↑ 102 ↓ 294
2018-10-05 U Канцелярская крыса [01-16 из 16] (2018) SATRip 10.04 GB ↑ 323 ↓ 618
2018-10-05 U Канцелярская крыса [01-16 из 16] (2018) SATRip-AVC 1К9.80 GB ↑ 1 ↓ 1
2018-10-04 U Канцелярская крыса [01-14 из 16] (2018) WEBRip от GeneralFilm 7.62 GB ↑ 63 ↓ 162
2018-10-04 U Канцелярская крыса [01-12 из 16] (2018) WEBRip от Files-x 7.08 GB ↑ 57 ↓ 53
2018-10-04 U Канцелярская крыса [01-14 из 16] (2018) SATRip 8.80 GB ↑ 75 ↓ 215

Отзывы
Зарегистрируйтесь чтобы добавить комментарий.
Обратная связь
Copyleft ©