↑↓Torrent.by
Поиск
Логин: Регистрация
Пароль: Восстановить пароль
Загрузка...

Смертельная гонка 4: Вне анархии / Death Race 4: Beyond Anarchy (2018) BDRip 1080p | L

Скачать smertelnaya-gonka-4-vne-anarhii-death-race-beyond-anarchy-2018-bdrip-1080p-l.torrent
U Магнитная ссылка Размер: 6.98 GB Раздают: 264 Качают: 178 Добавлен: 2018-10-03 22:15:03
Смертельная гонка 4: Вне анархии / Death Race 4: Beyond Anarchy (2018) BDRip 1080p | L

Название: Смертельная гонка 4: Вне анархии
Оригинальное название: Death Race 4: Beyond Anarchy
Год выхода: 2018
Жанр: Боевик
Режиссер: Дон Майкл Пол
В ролях: Зэк МакГоун, Фредерик Колер, Кристин Мардзано, Еннис Чун-Ян, Кэсси Клер, Люси Саутхолл, Дэнни Гловер, Дэнни Трехо, Николас Аарон, Камерон Джек

О фильме:
Продолжение известной серии фильмов про смертельную гонку. Главный герой знакомится с агентом телеканала в местном баре, что приводит его к участию в гонке. Теперь в битве участвуют уже не заключенные. Гонщиками становятся все отъявленные негодяи, насильники и убийцы. Когда герой отказывается от гонки, его семью берут в заложники , а самого насильно заставляют сесть за руль. Теперь вся пустыня - это поле для адских гонок. Сможет ли главный герой сохранить жизнь себе и своим близким?

Страна: США
Студия: Capital Arts Entertainment, UFO International Productions, Universal 1440 Entertainment
Продолжительность: 01:50:58
Перевод: Любительский многоголосый | GreenРай Studio

Файл
Кодек: x.264
Качество: BDRip 1080p | Death.Race.4.Beyond.Anarchy.2018.1080p.BluRay.x264-NODLABS
Видео: MPEG-4 AVC, 1920x1080, 8362 Kбит/с, 23.976 кадр/с
Звук: Релиз без Рекламы!
Аудио #1: Русский ( АС3, 2ch, 192 Кбит/с, 48.0 KHz) Любительский (многоголосый, закадровый) GreenРай Studio
Аудио #2: Английский ( АС3, 6ch, 448 Кбит/с, 48.0 KHz)
Субтитры: английские


[+] MediaInfo
Источник: Death.Race.4.Beyond.Anarchy.2018.1080p.BluRay.x264-NODLABS
General
Unique ID                      : 251890936535267862015969816509061182400 (0xBD806E036516B04AAF0460D23882B3C0)
Complete name                  : Death.Race.4.Beyond.Anarchy.2018.BDRip.1080p.mkv
Format                         : Matroska
Format version                 : Version 4 / Version 2
File size                      : 6.98 GiB
Duration                       : 1h 50mn
Overall bit rate               : 9 002 Kbps
Encoded date                   : UTC 2018-10-03 10:44:05
Writing application            : mkvmerge v7.1.0 ('Good Love') 64bit built on Jul 27 2014 13:06:55
Writing library                : libebml v1.3.0 + libmatroska v1.4.1

Video
ID                             : 1
Format                         : AVC
Format/Info                    : Advanced Video Codec
Format profile                 : High@L4.1
Format settings, CABAC         : Yes
Format settings, ReFrames      : 4 frames
Codec ID                       : V_MPEG4/ISO/AVC
Duration                       : 1h 50mn
Bit rate                       : 8 362 Kbps
Width                          : 1 920 pixels
Height                         : 1 080 pixels
Display aspect ratio           : 16:9
Frame rate mode                : Constant
Frame rate                     : 23.976 (24000/1001) fps
Color space                    : YUV
Chroma subsampling             : 4:2:0
Bit depth                      : 8 bits
Scan type                      : Progressive
Bits/(Pixel*Frame)             : 0.168
Stream size                    : 6.48 GiB (93%)
Writing library                : x264 core 157 r2932 303c484
Encoding settings              : cabac=1 / ref=4 / deblock=1:-3:-3 / analyse=0x3:0x113 / me=umh / subme=8 / psy=1 / psy_rd=1.00:0.00 / mixed_ref=1 / me_range=32 / chroma_me=1 / trellis=2 / 8x8dct=1 / cqm=0 / deadzone=21,11 / fast_pskip=1 / chroma_qp_offset=-2 / threads=24 / lookahead_threads=4 / sliced_threads=0 / nr=0 / decimate=1 / interlaced=0 / bluray_compat=0 / constrained_intra=0 / bframes=3 / b_pyramid=2 / b_adapt=2 / b_bias=0 / direct=3 / weightb=1 / open_gop=0 / weightp=2 / keyint=240 / keyint_min=24 / scenecut=40 / intra_refresh=0 / rc_lookahead=50 / rc=2pass / mbtree=1 / bitrate=8362 / ratetol=1.0 / qcomp=0.60 / qpmin=0 / qpmax=69 / qpstep=4 / cplxblur=20.0 / qblur=0.5 / ip_ratio=1.40 / aq=3:0.80
Language                       : English
Default                        : Yes
Forced                         : No

Audio #1
ID                             : 2
Format                         : AC-3
Format/Info                    : Audio Coding 3
Mode extension                 : CM (complete main)
Format settings, Endianness    : Big
Codec ID                       : A_AC3
Duration                       : 1h 50mn
Bit rate mode                  : Constant
Bit rate                       : 192 Kbps
Channel(s)                     : 2 channels
Channel positions              : Front: L R
Sampling rate                  : 48.0 KHz
Frame rate                     : 31.250 fps (1536 spf)
Compression mode               : Lossy
Stream size                    : 152 MiB (2%)
Title                          : MVO
Language                       : Russian
Default                        : Yes
Forced                         : No

Audio #2
ID                             : 3
Format                         : AC-3
Format/Info                    : Audio Coding 3
Mode extension                 : CM (complete main)
Format settings, Endianness    : Big
Codec ID                       : A_AC3
Duration                       : 1h 50mn
Bit rate mode                  : Constant
Bit rate                       : 448 Kbps
Channel(s)                     : 6 channels
Channel positions              : Front: L C R, Side: L R, LFE
Sampling rate                  : 48.0 KHz
Frame rate                     : 31.250 fps (1536 spf)
Compression mode               : Lossy
Stream size                    : 356 MiB (5%)
Language                       : English
Default                        : No
Forced                         : No

Text #1
ID                             : 4
Format                         : UTF-8
Codec ID                       : S_TEXT/UTF8
Codec ID/Info                  : UTF-8 Plain Text
Duration                       : 1h 44mn
Bit rate                       : 37 bps
Count of elements              : 858
Stream size                    : 28.7 KiB (0%)
Language                       : English
Default                        : No
Forced                         : No

Text #2
ID                             : 5
Format                         : UTF-8
Codec ID                       : S_TEXT/UTF8
Codec ID/Info                  : UTF-8 Plain Text
Duration                       : 1h 46mn
Bit rate                       : 41 bps
Count of elements              : 1046
Stream size                    : 32.3 KiB (0%)
Title                          : SDH
Language                       : English
Default                        : No
Forced                         : No

Menu
00:00:00.000                   : en:00:00:00.000
00:08:12.242                   : en:00:08:12.242
00:15:38.437                   : en:00:15:38.437
00:20:44.910                   : en:00:20:44.910
00:25:46.336                   : en:00:25:46.336
00:29:20.968                   : en:00:29:20.968
00:35:49.564                   : en:00:35:49.564
00:41:29.112                   : en:00:41:29.112
00:47:44.403                   : en:00:47:44.403
00:52:28.437                   : en:00:52:28.437
00:56:38.186                   : en:00:56:38.186
01:00:13.443                   : en:01:00:13.443
01:07:00.642                   : en:01:07:00.642
01:12:50.199                   : en:01:12:50.199
01:17:51.834                   : en:01:17:51.834
01:21:55.953                   : en:01:21:55.953
01:28:38.605                   : en:01:28:38.605
01:32:56.488                   : en:01:32:56.488
01:38:02.418                   : en:01:38:02.418
01:45:55.766                   : en:01:45:55.766



Скриншоты:
[+] Всего файлов в раздаче - 1:
Death.Race.4.Beyond.Anarchy.2018.BDRip.1080p.mkv6.98 GB

Текущая раздача:
ДатаКомментарии    РазмерПиры
2018-10-03 U Смертельная гонка 4: Вне анархии / Death Race 4: Beyond Anarchy (2018) BDRip 1080p | L 1 К 6.98 GB ↑ 264 ↓ 178

Показать еще раздачи по запросу смертельная:
2018-09-21 U Смертельная гонка 4: Вне анархии / Death Race 4: Beyond Anarchy (2018) WEBRip | L 1.46 GB ↑ 209 ↓ 79
2018-08-12 U Смертельная ночь / Dead Night (2017) WEBRip | L2 1.24 GB ↑ 24 ↓ 12
2018-08-10 U Смертельная гонка 4: Вне анархии / Death Race 4: Beyond Anarchy (2018) WEBRip 720p | GreenРай Studio 2.91 GB ↑ 117 ↓ 23
2018-08-09 U Смертельная гонка 4: Вне анархии / Death Race 4: Beyond Anarchy (2018) WEBRip | GreenРай Studio 1.46 GB ↑ 207 ↓ 79
2018-08-09 U Смертельная гонка 4: Вне анархии / Death Race 4: Beyond Anarchy (2018) WEBRip 1080p | GreenРай Studio 3.41 GB ↑ 76 ↓ 20
2018-07-29 U Смертельная добыча / Deadly Prey (1987) DVDRip 1.45 GB ↑ 82 ↓ 22
2018-06-02 U Смертельная высота (2018) HDTVRip 1080p 1К1.56 GB ↑ 109 ↓ 9

Отзывы
RainMan74
Беззубый)

Зарегистрируйтесь чтобы добавить комментарий.
Обратная связь
Copyleft ©