↑↓Torrent.by
Поиск
Логин: Регистрация
Пароль: Восстановить пароль
Загрузка...

Хот-Дог / Hot Dog (2018) BDRip | iTunes

Скачать hot-dog-2018-bdrip-itunes.torrent
U Магнитная ссылка Размер: 1.46 GB Раздают: 364 Качают: 186 Добавлен: 2018-10-04 15:35:45
Хот-Дог / Hot Dog (2018) BDRip | iTunes

Название: Хот-Дог
Оригинальное название: Hot Dog
Год выхода: 2018
Жанр: Боевик, комедия
Страна: Германия
Перевод: Дублированный | iTunes
Продолжительность: 01:45:31
Режиссер: Торстен Кюнстлер
В ролях: Тиль Швайгер, Маттиас Швайгхёфер, Энн Шефер, Лиза Томашевски, Йоахим Пауль Ассбёк, Давид Брюкнер, Симсон Баббл, Томас Фелен, Хайно Ферх, Самуэль Финци и др.

О фильме: Могут ли сработаться оперативник-бунтарь, презирающий глупые приказы начальства и молодой полицейский-формалист, у которого на каждый шаг в голове есть инструкция? На глазах у этой парочки похищают дочь президента одной из восточно-европейских стран, и теперь, чтобы отстоять свою честь, они должны вернуть похищенную. Вот только разница в их подходах к работе грозит перевернуть с ног наголову любое дело, за которое они берутся.

Файл
Формат: AVI
Качество: BDRip
Видео: Xvid 73, 704x288, ~1585 kbps, 23,976 fps
Звук: русский, AC3, 5.1 ch, 48 kHz, 384 kbps | iTunes
Субтитры: немецкие (вшитые) на 3 фразы и на названия локаций, учреждений
[+] Исходник
http://lostpic.net/image/niFq



[+] MI
General
Полное имя                               : F:TorrentHotDogBDRip.avi
Формат                                   : AVI
Формат/Информация                        : Audio Video Interleave
Профиль формата                          : OpenDML
Размер файла                             : 1.46 GiB
Продолжительность                        : 1 h 45 min
Общий поток                              : 1 981 kb/s
Программа кодирования                    : XviD4PSP 6.0 / 54.27.101

Video
Идентификатор                            : 0
Формат                                   : MPEG-4 Visual
Профиль формата                          : Advanced Simple@L5
Настройки формата                        : BVOP2 / Custom Matrix
Параметр BVOP формата                    : 2
Параметр QPel формата                    : No
Параметр GMC формата                     : No warppoints
Параметр матрицы формата                 : Custom
Идентификатор кодека                     : XVID
Идентификатор кодека/Подсказка           : XviD
Продолжительность                        : 1 h 45 min
Битрейт                                  : 1 585 kb/s
Ширина                                   : 704 pixels
Высота                                   : 288 pixels
Соотношение сторон                       : 2.40:1
Частота кадров                           : 23.976 (23976/1000) FPS
Цветовое пространство                    : YUV
Субдискретизация насыщенности            : 4:2:0
Битовая глубина                          : 8 bits
Тип развёртки                            : Progressive
Метод сжатия                             : Lossy
Бит/(Пиксели*Кадры)                      : 0.326
Размер потока                            : 1.17 GiB (80%)
Библиотека кодирования                   : XviD 73

Audio
Идентификатор                            : 1
Формат                                   : AC-3
Формат/Информация                        : Audio Coding 3
Идентификатор кодека                     : 2000
Продолжительность                        : 1 h 45 min
Вид битрейта                             : Constant
Битрейт                                  : 384 kb/s
Каналы                                   : 6 channels
Расположение каналов                     : Front: L C R, Side: L R, LFE
Частота                                  : 48.0 kHz
Частота кадров                           : 31.250 FPS (1536 SPF)
Битовая глубина                          : 16 bits
Метод сжатия                             : Lossy
Размер потока                            : 290 MiB (19%)
Выравнивание                             : Aligned on interleaves
Продолжительность промежутка             : 32  ms (0.77 video frame)




Скриншоты:
[+] Всего файлов в раздаче - 1:
HotDogBDRip.avi1.46 GB

Текущая раздача:
ДатаКомментарии    РазмерПиры
2018-10-04 U Хот-Дог / Hot Dog (2018) BDRip | iTunes 1.46 GB ↑ 364 ↓ 186

Показать еще раздачи по запросу bdrip:
Сегодня U Клуб «Школа» / Public Schooled (2017) BDRip от MegaPeer | iTunes 1.42 GB ↑ 30 ↓ 9
Сегодня U Клуб «Школа» / Public Schooled (2017) BDRip 720p | iTunes 4.27 GB ↑ 36 ↓ 11
Сегодня U Отель «Артемида» / Hotel Artemis (2018) BDRip-AVC от HELLYWOOD | iTunes 1.41 GB ↑ 44 ↓ 12
Сегодня U Клуб «Школа» / Public Schooled (2017) BDRip 1080p | iTunes 8.53 GB ↑ 52 ↓ 16
Вчера U Отель «Артемида» / Hotel Artemis (2018) BDRip от ExKinoRay | iTunes 1.42 GB ↑ 202 ↓ 48
Вчера U Клуб «Школа» / Public Schooled (2017) BDRip | iTunes 1.46 GB ↑ 115 ↓ 59
Вчера U Дальше по коридору / Down a Dark Hall (2018) BDRip 1080p | HDrezka Studio 9.29 GB ↑ 73 ↓ 18

Отзывы
Зарегистрируйтесь чтобы добавить комментарий.
Обратная связь
Copyleft ©