↑↓Torrent.by
Поиск
Логин: Регистрация
Пароль: Восстановить пароль
Загрузка...

Сокровища Ермака (2018) WEB-DL 1080p | iTunes

Скачать sokrovischa-ermaka-2018-web-dl-1080p-itunes.torrent
U Магнитная ссылка Размер: 3.41 GB Раздают: 178 Качают: 110 Добавлен: 2018-10-04 15:36:16
Сокровища Ермака (2018) WEB-DL 1080p | iTunes

Название: Сокровища Ермака
Год выпуска: 2018
Жанр:  Семейный, приключения
Режиссёр: Олег Денисов
В ролях: Георгий Кальдин, Мария Полиенко, Владимир Грамматиков, Артем Лещик, Александр Кононец, Ирина Горячева, Полина Воробьева, Роман Грибков, Сергей Гамов

Описание:
После того, как одиннадцатилетний пермский школьник Костя, самозабвенно влюбленный в археологию, находит на учебных раскопках древний ларец Строгановых с картой, начинается настоящая охота за легендарным кладом Ермака. Карта оказывается моментально похищенной бандитами. Но у Кости остаются фотография карты и ключ, о существовании которого бандиты уже догадались. Мальчик отправляется на поиски сокровищ, предварительно убедив родителей, что всего лишь едет в деревню к бабушке. Когда-то из-за этого клада погиб дед мальчика, известный археолог, и Костя решительно настроен осуществить его мечту. Неожиданно для Кости, вместе с ним увязывается Маша, девочка-сорванец, сбежавшая из дома. Вдвоем дети умудряются скрываться и от бандитов, и от полиции, проявляя чудеса изобретательности и медленно, но верно, шаг за шагом, приближаясь к кладу.

Страна: Россия
Студия: ТПО Рок
Продолжительность: 01:28:13
Язык: Русский

Файл
Формат: MKV
Качество: WEB-DL 1080p
Видео: 1920x1012 (1,897:1), 25 fps, MPEG-4 AVC ~ 5149 kbps avg, 0.106 bit/pixel
Звук: AC3, 48 kHz, 6 ch, ~384.00 kbps avg | русский | iTunes

Субтитры: Отсутствуют


[+] Инфо-файл
Общее
Уникальный идентификатор                 : 251198398677033552053367425183621101466 (0xBCFB0D42BA1845315204AD6A78F8B79A)
Полное имя                               : SOKROVISHA_ERMAKA (2018) WEB-DL_1080p.mkv
Формат                                   : Matroska
Версия формата                           : Version 4 / Version 2
Размер файла                             : 3,41 Гбайт
Продолжительность                        : 1 ч. 28 м.
Общий поток                              : 5535 Кбит/сек
Дата кодирования                         : UTC 2018-10-04 06:12:51
Программа кодирования                    : mkvmerge v27.0.0 ('Metropolis') 64-bit
Библиотека кодирования                   : libebml v1.3.6 + libmatroska v1.4.9

Видео
Идентификатор                            : 1
Формат                                   : AVC
Формат/Информация                        : Advanced Video Codec
Профиль формата                          : High@L4
Настройки формата                        : CABAC / 4 Ref Frames
Параметр CABAC формата                   : Да
Параметр RefFrames формата               : 4 кадра
Идентификатор кодека                     : V_MPEG4/ISO/AVC
Продолжительность                        : 1 ч. 28 м.
Битрейт                                  : 5149 Кбит/сек
Ширина                                   : 1920 пикселей
Высота                                   : 1012 пикселей
Соотношение сторон                       : 1,897
Режим частоты кадров                     : Постоянный
Частота кадров                           : 25,000 кадров/сек
Цветовое пространство                    : YUV
Субдискретизация насыщенности            : 4:2:0
Битовая глубина                          : 8 бит
Тип развёртки                            : Прогрессивная
Бит/(Пиксели*Кадры)                      : 0.106
Размер потока                            : 3,17 Гбайт (93%)
Заголовок                                : SOKROVISHA_ERMAKA (2018) WEB-DL_1080p
Язык                                     : English
Default                                  : Да
Forced                                   : Нет
Цветовой диапазон                        : Limited
Основные цвета                           : BT.709
Характеристики трансфера                 : BT.709
Коэффициенты матрицы                     : BT.709

Аудио
Идентификатор                            : 2
Формат                                   : AC-3
Формат/Информация                        : Audio Coding 3
Идентификатор кодека                     : A_AC3
Продолжительность                        : 1 ч. 28 м.
Вид битрейта                             : Постоянный
Битрейт                                  : 384 Кбит/сек
Каналы                                   : 6 каналов
Расположение каналов                     : Front: L C R, Side: L R, LFE
Частота                                  : 48,0 КГц
Частота кадров                           : 31,250 кадров/сек (1536 SPF)
Битовая глубина                          : 16 бит
Метод сжатия                             : С потерями
Задержка видео                           : -40 мс.
Размер потока                            : 242 Мбайт (7%)
Заголовок                                : iTunes | SOKROVISHA_ERMAKA (2018) WEB-DL_1080p
Язык                                     : Russian
Default                                  : Да
Forced                                   : Нет

Меню
00:00:00.000                             : en:Глава 1
00:06:47.800                             : en:Глава 2
00:12:23.440                             : en:Глава 3
00:18:07.520                             : en:Глава 4
00:24:53.520                             : en:Глава 5
00:33:25.760                             : en:Глава 6
00:41:08.480                             : en:Глава 7
00:48:38.640                             : en:Глава 8
00:56:08.440                             : en:Глава 9
01:01:28.520                             : en:Глава 10
01:07:35.160                             : en:Глава 11
01:15:04.920                             : en:Глава 12



Скриншоты:
[+] Всего файлов в раздаче - 1:
SOKROVISHA_ERMAKA (2018) WEB-DL_1080p.mkv3.41 GB

Текущая раздача:
ДатаКомментарии    РазмерПиры
2018-10-04 U Сокровища Ермака (2018) WEB-DL 1080p | iTunes 1 К 3.41 GB ↑ 178 ↓ 110

Показать еще раздачи по запросу сокровища:
2018-10-08 U Сокровища Ермака (2018) WEB-DLRip от GeneralFilm | iTunes 745.75 MB ↑ 51 ↓ 13
2018-10-05 U Сокровища Ермака (2018) WEB-DLRip от GeneralFilm | iTunes 1.46 GB ↑ 118 ↓ 40
2018-10-04 U Сокровища Ермака (2018) WEB-DLRip | iTunes 1.46 GB ↑ 271 ↓ 150
2018-06-05 U National Geographic: Сокровища Тутанхамона. Обретенные сокровища / Tut's Treasures: Hidden Secrets (2017) HDTVRip-AVC | P1 555.31 MB ↑ 170 ↓ 31
2018-04-26 U National Geographic: Затерянные сокровища змеиных царей майя / Lost Treasures of the Maya (2017) HDTVRip от Kaztorrents | P1 705.47 MB ↑ 93 ↓ 19
2018-02-12 U Алмазы Килиманджаро / Сокровища белой богини / Diamonds of Kilimandjaro / El tesoro de la diosa blanca (1983) DVDRip-AVC | A 1.46 GB ↑ 96 ↓ 64
2013-12-02 U Сокровища О.К. (2013) BDRip 720p от leonardo 59 & Scarabey | Лицензия 3.66 GB ↑ 34 ↓ 50

Отзывы
SaTaNa
Мда, детских киностудий не стало, и лепят сплошную малобюджетку, типа детям и так сойдёт.
Не видать нам больше таких шедевров, как Кортик и Бронзовая птица(

Зарегистрируйтесь чтобы добавить комментарий.
Обратная связь
Copyleft ©