↑↓Torrent.by
Поиск
Логин: Регистрация
Пароль: Восстановить пароль
Загрузка...

Человек-муравей и Оса / Ant-Man and the Wasp (2018) BDRip 1080p | iTunes

Скачать chelovek-muravey-i-osa-ant-man-and-the-wasp-2018-bdrip-1080p-itunes.torrent
U Магнитная ссылка Размер: 9.20 GB Раздают: 1976 Качают: 1711 Добавлен: 2018-10-05 09:43:33
Человек-муравей и Оса / Ant-Man and the Wasp (2018) BDRip 1080p | iTunes

Название: Человек-муравей и Оса
Оригинальное название: Ant-Man and the Wasp
Год выхода: 2018
Жанр: фантастика, боевик, приключения
Режиссер: Пейтон Рид
В ролях: Пол Радд, Эванджелин Лилли, Майкл Пенья, Уолтон Гоггинс, Бобби Каннавейл, Джуди Грир, Ти Ай, Давид Дастмалчян, Ханна Джон-Кэймен, Эбби Райдер Фортсон

О фильме:
Скотт Лэнг, известный также как Человек-муравей, уже заслужил право оказаться в команде Мстителей. Но желание быть ближе к дочери удерживает его в родном Сан-Франциско — до тех пор, пока доктор Хэнк Пим, создавший когда-то изменяющий размеры своего владельца чудо-костюм, не призывает Скотта присоединиться к новой опасной миссии. А помогать в противостоянии с коварным врагом Человеку-муравью будет новая напарница — Оса.

Страна: США
Продолжительность: 01:58:06
Перевод: Дублированный [iTunes]

Файл
Качество: BDRip 1080p
Формат: MKV
Видео кодек: AVC
Аудио кодек: AC3
Видео: 1920x808 (2.40:1), 23.976 fps, High@L4.1, 9 091 Kbps
Звук:
Аудио #1: Rus AC3, 384 Kbps, 48.0 KHz, 6 ch (iTunes)
Аудио #2: Rus AAC, 160 Kbps, 44.1 KHz, 2 ch (Тифлокомментарии iTunes)
Аудио #3: Eng DTS, 1509 Kbps, 48.0 KHz, 6 ch
Субтитры: Русские (форсированные, полные, SDH), английские

Релиз от: Tapochek


[+] МедиаИнфо
Format : Matroska
Format version : Version 4 / Version 2
File size : 9.20 GiB
Duration : 1 h 58 min
Overall bit rate : 11.1 Mb/s
Encoded date : UTC 2018-10-04 19:57:45
Writing application : mkvmerge v27.0.0 ('Metropolis') 64-bit
Writing library : libebml v1.3.6 + libmatroska v1.4.9

Video
ID : 1
Format : AVC
Format/Info : Advanced Video Codec
Format profile : High@L4.1
Format settings : CABAC / 5 Ref Frames
Format settings, CABAC : Yes
Format settings, ReFrames : 5 frames
Codec ID : V_MPEG4/ISO/AVC
Duration : 1 h 58 min
Bit rate : 9 091 kb/s
Width : 1 920 pixels
Height : 808 pixels
Display aspect ratio : 2.40:1
Frame rate mode : Constant
Frame rate : 23.976 FPS
Color space : YUV
Chroma subsampling : 4:2:0
Bit depth : 8 bits
Scan type : Progressive
Bits/(Pixel*Frame) : 0.244
Stream size : 7.50 GiB (82%)
Writing library : x264 core 157 r2932 303c484
Encoding settings : cabac=1 / ref=5 / deblock=1:0:0 / analyse=0x3:0x133 / me=umh / subme=7 / psy=1 / psy_rd=1.00:0.00 / mixed_ref=1 / me_range=16 / chroma_me=1 / trellis=1 / 8x8dct=1 / cqm=0 / deadzone=21,11 / fast_pskip=0 / chroma_qp_offset=-2 / threads=25 / lookahead_threads=4 / sliced_threads=0 / nr=0 / decimate=1 / interlaced=0 / bluray_compat=0 / constrained_intra=0 / bframes=3 / b_pyramid=2 / b_adapt=1 / b_bias=0 / direct=1 / weightb=1 / open_gop=0 / weightp=2 / keyint=250 / keyint_min=23 / scenecut=40 / intra_refresh=0 / rc_lookahead=40 / rc=2pass / mbtree=1 / bitrate=9091 / ratetol=1.0 / qcomp=0.60 / qpmin=0 / qpmax=69 / qpstep=4 / cplxblur=20.0 / qblur=0.5 / ip_ratio=1.40 / aq=1:1.00
Language : English
Default : Yes
Forced : No

Audio #1
ID : 2
Format : AC-3
Format/Info : Audio Coding 3
Codec ID : A_AC3
Duration : 1 h 58 min
Bit rate mode : Constant
Bit rate : 384 kb/s
Channel(s) : 6 channels
Channel positions : Front: L C R, Side: L R, LFE
Sampling rate : 48.0 kHz
Frame rate : 31.250 FPS (1536 SPF)
Bit depth : 16 bits
Compression mode : Lossy
Stream size : 326 MiB (3%)
Title : Дублированный (iTunes)
Language : Russian
Service kind : Complete Main
Default : Yes
Forced : No

Audio #2
ID : 3
Format : AC-3
Format/Info : Audio Coding 3
Codec ID : A_AC3
Duration : 1 h 58 min
Bit rate mode : Constant
Bit rate : 160 kb/s
Channel(s) : 2 channels
Channel positions : Front: L R
Sampling rate : 44.1 kHz
Frame rate : 28.711 FPS (1536 SPF)
Bit depth : 16 bits
Compression mode : Lossy
Stream size : 136 MiB (1%)
Title : Тифлокоммкентарии (iTunes)
Language : Russian
Service kind : Complete Main
Default : No
Forced : No

Audio #3
ID : 4
Format : DTS
Format/Info : Digital Theater Systems
Codec ID : A_DTS
Duration : 1 h 58 min
Bit rate mode : Constant
Bit rate : 1 509 kb/s
Channel(s) : 6 channels
Channel positions : Front: L C R, Side: L R, LFE
Sampling rate : 48.0 kHz
Frame rate : 93.750 FPS (512 SPF)
Bit depth : 24 bits
Compression mode : Lossy
Stream size : 1.24 GiB (14%)
Title : Оригинал
Language : English
Default : No
Forced : No

Text #1
ID : 5
Format : UTF-8
Codec ID : S_TEXT/UTF8
Codec ID/Info : UTF-8 Plain Text
Duration : 1 h 54 min
Bit rate : 0 b/s
Count of elements : 6
Stream size : 337 Bytes (0%)
Title : Forced (iTunes)
Language : Russian
Default : No
Forced : No

Text #2
ID : 6
Format : UTF-8
Codec ID : S_TEXT/UTF8
Codec ID/Info : UTF-8 Plain Text
Duration : 1 h 57 min
Bit rate : 103 b/s
Count of elements : 2152
Stream size : 89.7 KiB (0%)
Title : Full (iTunes)
Language : Russian
Default : No
Forced : No

Text #3
ID : 7
Format : UTF-8
Codec ID : S_TEXT/UTF8
Codec ID/Info : UTF-8 Plain Text
Duration : 1 h 54 min
Bit rate : 0 b/s
Count of elements : 6
Stream size : 337 Bytes (0%)
Title : SDH (iTunes)
Language : Russian
Default : No
Forced : No

Text #4
ID : 8
Format : UTF-8
Codec ID : S_TEXT/UTF8
Codec ID/Info : UTF-8 Plain Text
Duration : 1 h 50 min
Bit rate : 113 b/s
Count of elements : 2064
Stream size : 92.3 KiB (0%)
Title : Full
Language : Russian
Default : No
Forced : No

Text #5
ID : 9
Format : UTF-8
Codec ID : S_TEXT/UTF8
Codec ID/Info : UTF-8 Plain Text
Duration : 1 h 57 min
Bit rate : 68 b/s
Count of elements : 2136
Stream size : 59.2 KiB (0%)
Language : English
Default : No
Forced : No

Menu
00:00:00.000 : en:00:00:00.000
00:04:03.034 : en:00:04:03.034
00:10:16.407 : en:00:10:16.407
00:13:39.861 : en:00:13:39.861
00:21:25.451 : en:00:21:25.451
00:29:07.829 : en:00:29:07.829
00:36:09.084 : en:00:36:09.084
00:40:56.579 : en:00:40:56.579
00:50:17.431 : en:00:50:17.431
00:58:59.077 : en:00:58:59.077
01:04:56.434 : en:01:04:56.434
01:12:54.287 : en:01:12:54.287
01:18:32.124 : en:01:18:32.124
01:24:44.913 : en:01:24:44.913
01:29:47.340 : en:01:29:47.340
01:36:16.270 : en:01:36:16.270
01:43:35.334 : en:01:43:35.334
01:46:59.830 : en:01:46:59.830



Скриншоты:
[+] Всего файлов в раздаче - 1:
Ant.Man.and.the.Wasp.2018.D.BDRip.1080p.mkv9.20 GB

Текущая раздача:
ДатаКомментарии    РазмерПиры
2018-10-05 U Человек-муравей и Оса / Ant-Man and the Wasp (2018) BDRip 1080p | iTunes 9.20 GB ↑ 1976 ↓ 1711

Показать еще раздачи по запросу человек:
2018-10-14 U Человек-муравей и Оса / Ant-Man and the Wasp (2018) BDRip-HEVC 1080p от KORSAR | iTunes 5.19 GB ↑ 125 ↓ 62
2018-10-13 U Человек-муравей и Оса / Ant-Man and the Wasp (2018) UHD BDRemux 2160p от TeamHD | 4K | HDR | iTunes 41.23 GB ↑ 154 ↓ 228
2018-10-08 U Человек-муравей и Оса / Ant-Man and the Wasp (2018) BDRip-AVC от HELLYWOOD | iTunes 2.12 GB ↑ 51 ↓ 33
2018-10-08 U Человек-муравей и Оса / Ant-Man and the Wasp (2018) HDRip от Scarabey | iTunes 1.40 GB ↑ 92 ↓ 29
2018-10-08 U Человек-муравей и Оса / Ant-Man and the Wasp (2018) BDRip 720p от Scarabey | iTunes 5.27 GB ↑ 131 ↓ 28
2018-10-07 U Человек-муравей и Оса / Ant-Man and the Wasp (2018) HDRip от Scarabey | iTunes 1К747.34 MB ↑ 236 ↓ 62
2018-10-07 U Человек-муравей и Оса / Ant-Man and the Wasp (2018) BDRip 1080p от qqss44 & MegaPeer | iTunes 7.52 GB ↑ 1070 ↓ 607

Отзывы
Зарегистрируйтесь чтобы добавить комментарий.
Обратная связь
Copyleft ©