↑↓Torrent.by
Поиск
Логин: Регистрация
Пароль: Восстановить пароль
Загрузка...

Хот-Дог / Hot Dog (2018) BDRip-AVC | iTunes

Скачать hot-dog-2018-bdrip-avc-itunes.torrent
U Магнитная ссылка Размер: 2.17 GB Раздают: 199 Качают: 28 Добавлен: 2018-10-05 09:44:16
Хот-Дог / Hot Dog (2018) BDRip-AVC | iTunes

Название: Хот-Дог
Оригинальное название: Hot Dog
Год выхода: 2018
Жанр: Боевик, комедия
Страна: Германия
Перевод: Дублированный | iTunes
Продолжительность: 01:45:31
Режиссер: Торстен Кюнстлер
В ролях: Тиль Швайгер, Маттиас Швайгхёфер, Энн Шефер, Лиза Томашевски, Йоахим Пауль Ассбёк, Давид Брюкнер, Симсон Баббл, Томас Фелен, Хайно Ферх, Самуэль Финци и др.

О фильме: Могут ли сработаться оперативник-бунтарь, презирающий глупые приказы начальства и молодой полицейский-формалист, у которого на каждый шаг в голове есть инструкция? На глазах у этой парочки похищают дочь президента одной из восточно-европейских стран, и теперь, чтобы отстоять свою честь, они должны вернуть похищенную. Вот только разница в их подходах к работе грозит перевернуть с ног наголову любое дело, за которое они берутся.

Файл
Формат: MKV
Качество: BDRip
Видео: MPEG-4 AVC, 1024x426, 1920 kbps, 23,976 fps
Звук#1: русский, AC3, 5.1 ch, 48 kHz, 384 kbps | iTunes
Звук#2: немецкий, AC3, 5.1 ch, 48 kHz, 640 kbps | оригинал
Субтитры: русские, английские, немецкие
[+] Исходник
http://lostpic.net/image/niFq



[+] MI
General
Уникальный идентификатор                 : 195838796809865232581980071078543842562 (0x93552E2876103EC3BA23AA31DB315D02)
Полное имя                               : F:TorrentHotDogBDRipAVC.mkv
Формат                                   : Matroska
Версия формата                           : Version 4 / Version 2
Размер файла                             : 2.17 GiB
Продолжительность                        : 1 h 45 min
Общий поток                              : 2 946 kb/s
Дата кодирования                         : UTC 2018-10-02 17:22:09
Программа кодирования                    : mkvmerge v9.5.0 ('Quiet Fire') 64bit
Библиотека кодирования                   : libebml v1.3.4 + libmatroska v1.4.5

Video
Идентификатор                            : 1
Формат                                   : AVC
Формат/Информация                        : Advanced Video Codec
Профиль формата                          : High@L4.1
Настройки формата                        : CABAC / 12 Ref Frames
Параметр CABAC формата                   : Yes
Параметр RefFrames формата               : 12 frames
Идентификатор кодека                     : V_MPEG4/ISO/AVC
Продолжительность                        : 1 h 45 min
Битрейт                                  : 1 920 kb/s
Ширина                                   : 1 024 pixels
Высота                                   : 426 pixels
Соотношение сторон                       : 2.40:1
Режим частоты кадров                     : Constant
Частота кадров                           : 23.976 (24000/1001) FPS
Цветовое пространство                    : YUV
Субдискретизация насыщенности            : 4:2:0
Битовая глубина                          : 8 bits
Тип развёртки                            : Progressive
Бит/(Пиксели*Кадры)                      : 0.184
Размер потока                            : 1.41 GiB (65%)
Библиотека кодирования                   : x264 core 155 r2901M 7d0ff22
Настройки программы                      : cabac=1 / ref=12 / deblock=1:-3:-3 / analyse=0x3:0x133 / me=umh / subme=11 / psy=1 / psy_rd=1.00:0.00 / mixed_ref=1 / me_range=48 / chroma_me=1 / trellis=2 / 8x8dct=1 / cqm=0 / deadzone=21,11 / fast_pskip=0 / chroma_qp_offset=-2 / threads=5 / lookahead_threads=1 / sliced_threads=0 / nr=0 / decimate=0 / interlaced=0 / bluray_compat=0 / constrained_intra=0 / bframes=12 / b_pyramid=2 / b_adapt=2 / b_bias=0 / direct=3 / weightb=1 / open_gop=0 / weightp=2 / keyint=240 / keyint_min=24 / scenecut=40 / intra_refresh=0 / rc_lookahead=120 / rc=2pass / mbtree=0 / bitrate=1920 / ratetol=1.0 / qcomp=0.70 / qpmin=0 / qpmax=69 / qpstep=4 / cplxblur=20.0 / qblur=0.5 / vbv_maxrate=62500 / vbv_bufsize=78125 / nal_hrd=none / filler=0 / ip_ratio=1.40 / pb_ratio=1.30 / aq=1:1.00
Default                                  : Yes
Forced                                   : No

Audio #1
Идентификатор                            : 2
Формат                                   : AC-3
Формат/Информация                        : Audio Coding 3
Идентификатор кодека                     : A_AC3
Продолжительность                        : 1 h 45 min
Вид битрейта                             : Constant
Битрейт                                  : 384 kb/s
Каналы                                   : 6 channels
Расположение каналов                     : Front: L C R, Side: L R, LFE
Частота                                  : 48.0 kHz
Частота кадров                           : 31.250 FPS (1536 SPF)
Битовая глубина                          : 16 bits
Метод сжатия                             : Lossy
Размер потока                            : 290 MiB (13%)
Язык                                     : Russian
Default                                  : Yes
Forced                                   : No

Audio #2
Идентификатор                            : 3
Формат                                   : AC-3
Формат/Информация                        : Audio Coding 3
Идентификатор кодека                     : A_AC3
Продолжительность                        : 1 h 45 min
Вид битрейта                             : Constant
Битрейт                                  : 640 kb/s
Каналы                                   : 6 channels
Расположение каналов                     : Front: L C R, Side: L R, LFE
Частота                                  : 48.0 kHz
Частота кадров                           : 31.250 FPS (1536 SPF)
Битовая глубина                          : 16 bits
Метод сжатия                             : Lossy
Размер потока                            : 483 MiB (22%)
Язык                                     : German
Default                                  : No
Forced                                   : No

Text #1
Идентификатор                            : 4
Формат                                   : UTF-8
Идентификатор кодека                     : S_TEXT/UTF8
Идентификатор кодека/Информация          : UTF-8 Plain Text
Продолжительность                        : 1 h 44 min
Битрейт                                  : 103 b/s
ElementCount                             : 1287
Размер потока                            : 78.9 KiB (0%)
Язык                                     : Russian
Default                                  : No
Forced                                   : No

Text #2
Идентификатор                            : 5
Формат                                   : UTF-8
Идентификатор кодека                     : S_TEXT/UTF8
Идентификатор кодека/Информация          : UTF-8 Plain Text
Продолжительность                        : 1 h 44 min
Битрейт                                  : 59 b/s
ElementCount                             : 1288
Размер потока                            : 45.9 KiB (0%)
Язык                                     : English
Default                                  : No
Forced                                   : No

Text #3
Идентификатор                            : 6
Формат                                   : UTF-8
Идентификатор кодека                     : S_TEXT/UTF8
Идентификатор кодека/Информация          : UTF-8 Plain Text
Продолжительность                        : 1 h 44 min
Битрейт                                  : 63 b/s
ElementCount                             : 1469
Размер потока                            : 49.0 KiB (0%)
Язык                                     : German
Default                                  : No
Forced                                   : No

Menu
00:00:00.000                             : en:Chapter 1
00:10:09.984                             : en:Chapter 2
00:18:15.177                             : en:Chapter 3
00:28:49.185                             : en:Chapter 4
00:37:41.676                             : en:Chapter 5
00:46:10.517                             : en:Chapter 6
00:55:33.913                             : en:Chapter 7
01:03:30.598                             : en:Chapter 8
01:12:27.051                             : en:Chapter 9
01:19:02.863                             : en:Chapter 10
01:26:47.118                             : en:Chapter 11
01:36:04.091                             : en:Chapter 12




Скриншоты:
[+] Всего файлов в раздаче - 1:
HotDogBDRipAVC.mkv2.17 GB

Текущая раздача:
ДатаКомментарии    РазмерПиры
2018-10-05 U Хот-Дог / Hot Dog (2018) BDRip-AVC | iTunes 2.17 GB ↑ 199 ↓ 28

Показать еще раздачи по запросу bdrip:
Вчера U Последний беспредел / Autoreiji saishusho / Outrage Coda (2017) BDRip-AVC | iTunes 2.17 GB ↑ 31 ↓ 31
Вчера U Последний беспредел / Autoreiji saishusho / Outrage Coda (2017) BDRip 720p | iTunes 3.97 GB ↑ 38 ↓ 60
Вчера U Последний беспредел / Autoreiji saishusho / Outrage Coda (2017) BDRip 1080p | iTunes 7.75 GB ↑ 27 ↓ 126
Вчера U Последний беспредел / Autoreiji saishusho / Outrage Coda (2017) BDRip | iTunes 1.45 GB ↑ 45 ↓ 70
Вчера U Клуб «Школа» / Public Schooled (2017) BDRip от MegaPeer | iTunes 1.42 GB ↑ 30 ↓ 9
Вчера U Клуб «Школа» / Public Schooled (2017) BDRip 720p | iTunes 4.27 GB ↑ 35 ↓ 11
Вчера U Отель «Артемида» / Hotel Artemis (2018) BDRip-AVC от HELLYWOOD | iTunes 1.41 GB ↑ 43 ↓ 14

Отзывы
Зарегистрируйтесь чтобы добавить комментарий.
Обратная связь
Copyleft ©