↑↓Torrent.by
Поиск
Логин: Регистрация
Пароль: Восстановить пароль
Загрузка...

Небоскрёб / Skyscraper (2018) BDRip 1080p от qqss44 & MegaPeer | iTunes

Скачать neboskreb-skyscraper-2018-bdrip-1080p-ot-qqss44-megapeer-itunes.torrent
U Магнитная ссылка Размер: 7.55 GB Раздают: 115 Качают: 42 Добавлен: 2018-10-05 09:44:45
Небоскрёб / Skyscraper (2018) BDRip 1080p от qqss44 & MegaPeer | iTunes

Название: Небоскрёб
Оригинальное название: Skyscraper
Год выпуска: 2018
Жанр: Боевик, триллер, драма, криминал
Режиссер: Роусон Маршалл Тёрбер
В ролях: Дуэйн Джонсон, Нив Кэмпбелл, Пабло Шрайбер, Ноа Тейлор, Кевин Ранкин, Роланд Мёллер, Байрон Манн, Мэтт О`Лири, Адриан Холмс

О фильме:
Самый высокий и технологичный небоскрёб в мире становится центром огненной катастрофы. Только бывший агент ФБР, а теперь эксперт по безопасности Уилл Форд может спасти вертикальный город под небесами. Когда нельзя доверять никому, а жизнь семьи в опасности, каждая секунда на счету.

Страна: США
Студия: Legendary Entertainment, Flynn Picture Company, Seven Bucks Productions
Продолжительность: 01:42:24
Перевод: Дублированный | iTunes

Файл
Формат: MKV, BDRip 1080p
Видео: MPEG-4 AVC, 10200 Кбит/с, 1920x800
Aудио#1: [RUS] AC3 | 48 KHz | 5.1 (Front: L С R Side: L R) + LFE | ~384 kbps
Субтитры: русские форсированные и полные
Релиз от:


[+] МИ


Общее
Уникальный идентификатор                 : 225247368844678728929831091781254265291 (0xA97510B491431CD386BAF8CD2C4C39CB)
Полное имя                               : H:Skyscraper.(2018).BDRip-1080p.MegaPeer.(qqss44).mkv
Формат                                   : Matroska
Версия формата                           : Version 2
Размер файла                             : 7,55 Гбайт
Продолжительность                        : 1 ч. 42 м.
Общий поток                              : 10,6 Мбит/сек
Название фильма                          : Skyscraper.(2018).BDRip-1080p.MegaPeer.(qqss44)
Дата кодирования                         : UTC 2018-10-04 12:02:28
Программа кодирования                    : mkvmerge v7.8.0 ('River Man') 32bit built on Apr  3 2015 12:11:22
Библиотека кодирования                   : libebml v1.3.1 + libmatroska v1.4.2

Видео
Идентификатор                            : 1
Формат                                   : AVC
Формат/Информация                        : Advanced Video Codec
Профиль формата                          : High@L4.1
Параметр CABAC формата                   : Да
Параметр ReFrames формата                : 5 кадров
Идентификатор кодека                     : V_MPEG4/ISO/AVC
Продолжительность                        : 1 ч. 42 м.
Битрейт                                  : 10,2 Мбит/сек
Ширина                                   : 1920 пикселей
Высота                                   : 800 пикселей
Соотношение сторон                       : 2,40:1
Режим частоты кадров                     : Постоянный
Частота кадров                           : 23,976 (24000/1001) кадра/сек
Цветовое пространство                    : YUV
Субдискретизация насыщенности            : 4:2:0
Битовая глубина                          : 8 бит
Тип развёртки                            : Прогрессивная
Бит/(Пиксели*Кадры)                      : 0.277
Размер потока                            : 7,13 Гбайт (94%)
Библиотека кодирования                   : x264 core 152 r2851 ba24899
Настройки программы                      : cabac=1 / ref=5 / deblock=1:-3:-3 / analyse=0x3:0x113 / me=umh / subme=11 / psy=1 / psy_rd=1.00:0.00 / mixed_ref=1 / me_range=32 / chroma_me=1 / trellis=2 / 8x8dct=1 / cqm=0 / deadzone=21,11 / fast_pskip=0 / chroma_qp_offset=-2 / threads=12 / lookahead_threads=2 / sliced_threads=0 / nr=0 / decimate=0 / interlaced=0 / bluray_compat=0 / constrained_intra=0 / bframes=8 / b_pyramid=2 / b_adapt=2 / b_bias=0 / direct=3 / weightb=1 / open_gop=0 / weightp=2 / keyint=250 / keyint_min=23 / scenecut=40 / intra_refresh=0 / rc_lookahead=40 / rc=2pass / mbtree=0 / bitrate=10200 / ratetol=1.0 / qcomp=0.70 / qpmin=0 / qpmax=69 / qpstep=4 / cplxblur=20.0 / qblur=0.5 / vbv_maxrate=50000 / vbv_bufsize=62500 / nal_hrd=none / filler=0 / ip_ratio=1.40 / pb_ratio=1.30 / aq=3:0.80
Язык                                     : English
Default                                  : Да
Forced                                   : Нет

Аудио
Идентификатор                            : 2
Формат                                   : AC-3
Формат/Информация                        : Audio Coding 3
Расширение режима                        : CM (complete main)
Параметр Endianness формата              : Big
Идентификатор кодека                     : A_AC3
Продолжительность                        : 1 ч. 42 м.
Вид битрейта                             : Постоянный
Битрейт                                  : 384 Кбит/сек
Каналы                                   : 6 каналов
Расположение каналов                     : Front: L C R, Side: L R, LFE
Частота                                  : 48,0 КГц
Частота кадров                           : 31,250 кадров/сек (1536 spf)
Метод сжатия                             : С потерями
Размер потока                            : 281 Мбайт (4%)
Язык                                     : Russian
Default                                  : Да
Forced                                   : Нет

Текст #1
Идентификатор                            : 3
Формат                                   : UTF-8
Идентификатор кодека                     : S_TEXT/UTF8
Идентификатор кодека/Информация          : UTF-8 Plain Text
Заголовок                                : FORCED
Язык                                     : Russian
Default                                  : Да
Forced                                   : Нет

Текст #2
Идентификатор                            : 4
Формат                                   : UTF-8
Идентификатор кодека                     : S_TEXT/UTF8
Идентификатор кодека/Информация          : UTF-8 Plain Text
Заголовок                                : FULL
Язык                                     : Russian
Default                                  : Нет
Forced                                   : Нет

Меню
00:00:00.000                             : en:Chapter 01
00:04:24.764                             : en:Chapter 02
00:10:07.355                             : en:Chapter 03
00:16:09.927                             : en:Chapter 04
00:21:12.604                             : en:Chapter 05
00:21:12.605                             : en:Chapter 06
00:25:34.990                             : en:Chapter 07
00:30:11.726                             : en:Chapter 08
00:30:11.727                             : en:Chapter 09
00:35:23.913                             : en:Chapter 10
00:40:07.111                             : en:Chapter 11 / en:Chapter 12
00:47:18.960                             : en:Chapter 13 / en:Chapter 14
00:52:10.250                             : en:Chapter 15 / en:Chapter 16
00:58:16.784                             : en:Chapter 17
01:02:02.969                             : en:Chapter 18
01:05:29.634                             : en:Chapter 19
01:09:59.403                             : en:Chapter 20 / en:Chapter 21
01:14:31.425                             : en:Chapter 22
01:17:18.256                             : en:Chapter 23
01:17:18.259                             : en:Chapter 24
01:23:33.340                             : en:Chapter 25
01:27:46.219                             : en:Chapter 26
01:32:54.568                             : en:Chapter 27




Скриншоты:
[+] Всего файлов в раздаче - 1:
Skyscraper.(2018).BDRip-1080p.MegaPeer.(qqss44).mkv7.55 GB

Отзывы
Зарегистрируйтесь чтобы добавить комментарий.
Обратная связь
Copyleft ©