↑↓Torrent.by
Поиск
Логин: Регистрация
Пароль: Восстановить пароль
Загрузка...

Невероятные приключения Факира / The Extraordinary Journey of the Fakir (2018) BDRip 720p | iTunes

Скачать neveroyatnye-priklyucheniya-fakira-the-extraordinary-journey-of-fakir-2018-bdrip-720p-itunes.torrent
U Магнитная ссылка Размер: 4.62 GB Раздают: 113 Качают: 35 Добавлен: 2018-10-05 15:52:20
Невероятные приключения Факира / The Extraordinary Journey of the Fakir (2018) BDRip 720p | iTunes

Название: Невероятные приключения Факира
Оригинальное название: The Extraordinary Journey of the Fakir
Год выхода: 2018
Жанр: Комедия, приключения
Режиссер: Кен Скотт
В ролях: Дхануш, Беренис Бежо, Эрин Мориарти, Баркхад Абди, Жерар Жюньо, Бен Миллер, Абель Жафри, Сара-Джинн Лабросс, Кай Грейданус, Амрута Сент

О фильме:
Если любовь не стучится в дверь, самое время поискать её на другом конце света. Когда нашел — не потерять. А если потерял — вернуть любой ценой. Пускай для этого придется путешествовать в шкафу, на лодке, на воздушном шаре или даже в чемодане. Мумбаи-Париж-Лондон-Рим — если у чувств нет границ, то и бизнес-класс им не нужен.

Страна: Франция, США, Бельгия, Сингапур, Индия
Студия: Brio Films, Scope Pictures, Little Red Car Films
Продолжительность: 01:35:50
Перевод: Дублированный | iTunes

Файл
Кодек: x.264
Качество: BDRip 720p | The.Extraordinary.Journey.of.the.Fakir.2018.720p.BluRay.x264-CiNEFiLE
Видео: MPEG-4 AVC, 1280x536, 5018 Kбит/с, 24.000 кадр/с
Аудио #1: Русский ( АС3, 6ch, 384 Кбит/с, 48.0 KHz) Профессиональный (дублированный) iTunes
Аудио #2: Английский ( DTS, 6ch, 1510 Кбит/с, 48.0 KHz)
Субтитры: нет


[+] MediaInfo
Источник: The.Extraordinary.Journey.of.the.Fakir.2018.720p.BluRay.x264-CiNEFiLE
General
Unique ID                      : 232673563828709263493501623790402349059 (0xAF0B4C62ED37B6359103878114C52803)
Complete name                  : The.Extraordinary.Journey.of.the.Fakir.2018.BDRip.720p.mkv
Format                         : Matroska
Format version                 : Version 4 / Version 2
File size                      : 4.62 GiB
Duration                       : 1h 35mn
Overall bit rate               : 6 906 Kbps
Encoded date                   : UTC 2018-10-04 13:11:31
Writing application            : mkvmerge v7.1.0 ('Good Love') 64bit built on Jul 27 2014 13:06:55
Writing library                : libebml v1.3.0 + libmatroska v1.4.1

Video
ID                             : 1
Format                         : AVC
Format/Info                    : Advanced Video Codec
Format profile                 : High@L4.1
Format settings, CABAC         : Yes
Format settings, ReFrames      : 9 frames
Codec ID                       : V_MPEG4/ISO/AVC
Duration                       : 1h 35mn
Bit rate                       : 5 018 Kbps
Width                          : 1 280 pixels
Height                         : 536 pixels
Display aspect ratio           : 2.40:1
Frame rate mode                : Constant
Frame rate                     : 24.000 fps
Color space                    : YUV
Chroma subsampling             : 4:2:0
Bit depth                      : 8 bits
Scan type                      : Progressive
Bits/(Pixel*Frame)             : 0.305
Stream size                    : 3.36 GiB (73%)
Writing library                : x264 core 157 r2935 545de2f
Encoding settings              : cabac=1 / ref=9 / deblock=1:-3:-3 / analyse=0x3:0x113 / me=umh / subme=8 / psy=1 / psy_rd=1.00:0.00 / mixed_ref=1 / me_range=16 / chroma_me=1 / trellis=2 / 8x8dct=1 / cqm=0 / deadzone=21,11 / fast_pskip=0 / chroma_qp_offset=-2 / threads=17 / lookahead_threads=2 / sliced_threads=0 / nr=0 / decimate=1 / interlaced=0 / bluray_compat=0 / constrained_intra=0 / bframes=3 / b_pyramid=2 / b_adapt=1 / b_bias=0 / direct=1 / weightb=1 / open_gop=0 / weightp=2 / keyint=250 / keyint_min=24 / scenecut=40 / intra_refresh=0 / rc_lookahead=40 / rc=2pass / mbtree=1 / bitrate=5018 / ratetol=1.0 / qcomp=0.60 / qpmin=0 / qpmax=69 / qpstep=4 / cplxblur=20.0 / qblur=0.5 / ip_ratio=1.40 / aq=1:1.00
Language                       : English
Default                        : Yes
Forced                         : No

Audio #1
ID                             : 2
Format                         : AC-3
Format/Info                    : Audio Coding 3
Mode extension                 : CM (complete main)
Format settings, Endianness    : Big
Codec ID                       : A_AC3
Duration                       : 1h 35mn
Bit rate mode                  : Constant
Bit rate                       : 384 Kbps
Channel(s)                     : 6 channels
Channel positions              : Front: L C R, Side: L R, LFE
Sampling rate                  : 48.0 KHz
Frame rate                     : 31.250 fps (1536 spf)
Compression mode               : Lossy
Stream size                    : 262 MiB (6%)
Title                          : iTunes
Language                       : Russian
Default                        : Yes
Forced                         : No

Audio #2
ID                             : 3
Format                         : DTS
Format/Info                    : Digital Theater Systems
Mode                           : 16
Format settings, Endianness    : Big
Codec ID                       : A_DTS
Duration                       : 1h 35mn
Bit rate mode                  : Constant
Bit rate                       : 1 509 Kbps
Channel(s)                     : 6 channels
Channel positions              : Front: L C R, Side: L R, LFE
Sampling rate                  : 48.0 KHz
Frame rate                     : 93.750 fps (512 spf)
Bit depth                      : 24 bits
Compression mode               : Lossy
Stream size                    : 1.01 GiB (22%)
Language                       : English
Default                        : No
Forced                         : No

Menu
00:00:00.000                   : en:00:00:00.000
00:09:18.250                   : en:00:09:18.250
00:16:21.292                   : en:00:16:21.292
00:24:12.417                   : en:00:24:12.417
00:34:11.417                   : en:00:34:11.417
00:43:00.333                   : en:00:43:00.333
00:48:51.458                   : en:00:48:51.458
00:59:26.917                   : en:00:59:26.917
01:10:36.750                   : en:01:10:36.750
01:20:20.625                   : en:01:20:20.625
01:28:08.750                   : en:01:28:08.750



Скриншоты:
[+] Всего файлов в раздаче - 1:
The.Extraordinary.Journey.of.the.Fakir.2018.BDRip.720p.mkv4.62 GB

Текущая раздача:
ДатаКомментарии    РазмерПиры
2018-10-05 U Невероятные приключения Факира / The Extraordinary Journey of the Fakir (2018) BDRip 720p | iTunes 4.62 GB ↑ 113 ↓ 35

Показать еще раздачи по запросу невероятные:
2018-10-06 U Невероятные приключения Факира / The Extraordinary Journey of the Fakir (2018) BDRip 1080p | iTunes 7.78 GB ↑ 151 ↓ 84
2018-10-06 U Невероятные приключения Факира / The Extraordinary Journey of the Fakir (2018) BDRip от MegaPeer | iTunes 1.42 GB ↑ 237 ↓ 64
2018-10-02 U Невероятные приключения Факира / The Extraordinary Journey of the Fakir (2018) WEB-DL 1080p | iTunes 3.31 GB ↑ 702 ↓ 204
2018-09-30 U Невероятные приключения Факира / The Extraordinary Journey of the Fakir (2018) WEB-DLRip от MegaPeer | iTunes 1.46 GB ↑ 598 ↓ 252
2018-06-27 U Невероятные приключения ДжоДжо / JoJo's Bizarre Adventure: Diamond Is Unbreakable 1 (2017) BDRip-AVC | L 1К1.13 GB ↑ 22 ↓ 8
2018-05-25 U Невероятные приключения янки в Африке / Yankee Zulu (1993) WEB-DLRip 1080p | P, P2 8.78 GB ↑ 121 ↓ 34
2017-12-25 U Невероятные приключения Алины Троянской [01-04 из 04] (2014) WEB-DLRip-AVC от Files-x 4.47 GB ↑ 205 ↓ 94

Отзывы
Зарегистрируйтесь чтобы добавить комментарий.
Обратная связь
Copyleft ©