↑↓Torrent.by
Поиск
Логин: Регистрация
Пароль: Восстановить пароль
Загрузка...

Сокровища Ермака (2018) WEB-DLRip от GeneralFilm | iTunes

Скачать sokrovischa-ermaka-2018-web-dlrip-ot-generalfilm-itunes.torrent
U Магнитная ссылка Размер: 1.46 GB Раздают: 116 Качают: 40 Добавлен: 2018-10-05 15:52:27
Сокровища Ермака (2018) WEB-DLRip от GeneralFilm | iTunes

Оригинальное название: Сокровища Ермака
Год выпуска: 2018
Жанр:  Семейный, приключения
Режиссер: Олег Денисов
В ролях: Георгий Кальдин, Мария Полиенко, Владимир Грамматиков, Артем Лещик, Александр Кононец, Ирина Горячева, Полина Воробьева, Роман Грибков, Сергей Гамов

О фильме:
После того, как одиннадцатилетний пермский школьник Костя, самозабвенно влюбленный в археологию, находит на учебных раскопках древний ларец Строгановых с картой, начинается настоящая охота за легендарным кладом Ермака. Карта оказывается моментально похищенной бандитами. Но у Кости остаются фотография карты и ключ, о существовании которого бандиты уже догадались. Мальчик отправляется на поиски сокровищ, предварительно убедив родителей, что всего лишь едет в деревню к бабушке. Когда-то из-за этого клада погиб дед мальчика, известный археолог, и Костя решительно настроен осуществить его мечту. Неожиданно для Кости, вместе с ним увязывается Маша, девочка-сорванец, сбежавшая из дома. Вдвоем дети умудряются скрываться и от бандитов, и от полиции, проявляя чудеса изобретательности и
медленно, но верно, шаг за шагом, приближаясь к кладу.

Страна: Россия
Студия: ТПО Рок
Продолжительность: 01:28:13
Перевод: Не требуется
Субтитры: нет

Файл
Формат: avi
Качество: WEB-DLRip
Видео: XviD build 73, 720x384 (1.85:1), 25.000 fps, ~ 1969 Kbps (~ 0.285 bit/pixel)
Звук: 48.0 kHz, AC3, 5/1 ch, 384 kbps

Релиз:


[+] MediaInfo
General
Complete name               : D:RazdachiSokrovisha.Ermaka.2018.XviD.WEB-DLRip.GeneralFilm.avi
Format                      : AVI
Format/Info                 : Audio Video Interleave
File size                   : 1.46 GiB
Duration                    : 1 h 28 min
Overall bit rate            : 2 362 kb/s
Writing application         : VirtualDubMod 1.5.10.3 | www.virtualdub-fr.org || (build 2550/release)
Writing library             : VirtualDubMod build 2550/release

Video
ID                          : 0
Format                      : MPEG-4 Visual
Format profile              : Advanced Simple@L5
Format settings, BVOP       : 1
Format settings, QPel       : No
Format settings, GMC        : No warppoints
Format settings, Matrix     : Custom
Codec ID                    : XVID
Codec ID/Hint               : XviD
Duration                    : 1 h 28 min
Bit rate                    : 1 969 kb/s
Width                       : 720 pixels
Height                      : 384 pixels
Display aspect ratio        : 1.85:1
Frame rate                  : 25.000 FPS
Color space                 : YUV
Chroma subsampling          : 4:2:0
Bit depth                   : 8 bits
Scan type                   : Progressive
Compression mode            : Lossy
Bits/(Pixel*Frame)          : 0.285
Stream size                 : 1.21 GiB (83%)
Writing library             : XviD 73

Audio
ID                          : 1
Format                      : AC-3
Format/Info                 : Audio Coding 3
Format settings, Endianness : Big
Codec ID                    : 2000
Duration                    : 1 h 28 min
Bit rate mode               : Constant
Bit rate                    : 384 kb/s
Channel(s)                  : 6 channels
Channel positions           : Front: L C R, Side: L R, LFE
Sampling rate               : 48.0 kHz
Frame rate                  : 31.250 FPS (1536 SPF)
Bit depth                   : 16 bits
Compression mode            : Lossy
Stream size                 : 242 MiB (16%)
Alignment                   : Split accross interleaves
Interleave, duration        : 40  ms (1.00 video frame)
Interleave, preload duratio : 500  ms
Service kind                : Complete Main



Скриншоты:
[+] Всего файлов в раздаче - 1:
Sokrovisha.Ermaka.2018.XviD.WEB-DLRip.GeneralFilm.avi1.46 GB

Текущая раздача:
ДатаКомментарии    РазмерПиры
2018-10-05 U Сокровища Ермака (2018) WEB-DLRip от GeneralFilm | iTunes 1.46 GB ↑ 116 ↓ 40

Показать еще раздачи по запросу сокровища:
2018-10-08 U Сокровища Ермака (2018) WEB-DLRip от GeneralFilm | iTunes 745.75 MB ↑ 53 ↓ 12
2018-10-04 U Сокровища Ермака (2018) WEB-DL 1080p | iTunes 1К3.41 GB ↑ 162 ↓ 109
2018-10-04 U Сокровища Ермака (2018) WEB-DLRip | iTunes 1.46 GB ↑ 251 ↓ 149
2018-06-05 U National Geographic: Сокровища Тутанхамона. Обретенные сокровища / Tut's Treasures: Hidden Secrets (2017) HDTVRip-AVC | P1 555.31 MB ↑ 169 ↓ 31
2018-04-26 U National Geographic: Затерянные сокровища змеиных царей майя / Lost Treasures of the Maya (2017) HDTVRip от Kaztorrents | P1 705.47 MB ↑ 93 ↓ 19
2018-02-12 U Алмазы Килиманджаро / Сокровища белой богини / Diamonds of Kilimandjaro / El tesoro de la diosa blanca (1983) DVDRip-AVC | A 1.46 GB ↑ 96 ↓ 64
2013-12-02 U Сокровища О.К. (2013) BDRip 720p от leonardo 59 & Scarabey | Лицензия 3.66 GB ↑ 34 ↓ 50

Отзывы
Зарегистрируйтесь чтобы добавить комментарий.
Обратная связь
Copyleft ©