↑↓Torrent.by
Поиск
Логин: Регистрация
Пароль: Восстановить пароль
Загрузка...

Человек-муравей и Оса / Ant-Man and the Wasp (2018) BDRip 1080p от TeamHD | iTunes

Скачать chelovek-muravey-i-osa-ant-man-and-the-wasp-2018-bdrip-1080p-ot-teamhd-itunes.torrent
U Магнитная ссылка Размер: 11.31 GB Раздают: 1680 Качают: 1212 Добавлен: 2018-10-06 12:47:53
Человек-муравей и Оса / Ant-Man and the Wasp (2018) BDRip 1080p от TeamHD | iTunes

Название: Человек-муравей и Оса
Оригинальное название: Ant-Man and the Wasp
Год выхода: 2018
Жанр: Фантастика, боевик, приключения
Режиссер: Пейтон Рид
В ролях: Пол Радд, Эванджелин Лилли, Майкл Пенья, Уолтон Гоггинс, Бобби Каннавейл, Джуди Грир, Ти Ай, Давид Дастмалчян, Ханна Джон-Кэймен, Эбби Райдер Фортсон

О фильме: Скотт Лэнг, известный также, как Человек-Муравей уже заслужил право оказаться в команде Мстителей, но желание быть ближе к собственной дочке удерживает его в родном Сан-Франциско - до тех пор, пока доктор Хэнк Пим, создавший когда-то изменяющий размеры своего владельца чудо-костюм, не призывает Скотта присоединиться к новой, опасной миссии. А помогать в противостоянии с коварным врагом Человеку-Муравью будет новая напарница - Оса.

Страна: США
Студия: Marvel Studios
Продолжительность: 01:58:06
Перевод: Дублированный | iTunes

Качество: BDRip 1080p
Видео: MPEG-4 AVC, 1920x804, 12 Мbit/s, 23.976 fps
Звук:
Аудио #01: 48 kHz, AC3, 5.1, 384 Kbps | iTunes | RUS |
Аудио #02: 48 kHz, DTS, 5.1, 1510 Kbps | Оригинал |  ENG |
Субтитры: Русские (Forced, full, SDH), английские (Full, SDH, SDH Colored)

Релиз: Автор релиза:


[+] MI
General
Unique ID                   : 211162371874639435744369534713800558807 (0x9EDC64BD35D678A59411F148B7C208D7)
Complete name               : D:Video111Ant-Man.and.the.Wasp.2018.BluRay.1080p.Rus.Eng.TeamHD-CHD.mkv
Format                      : Matroska
Format version              : Version 4
File size                   : 11.3 GiB
Duration                    : 1 h 58 min
Overall bit rate            : 13.7 Mb/s
Movie name                  : Ant-Man and the Wasp (2018) TeamHD-селезень
Encoded date                : UTC 2018-10-05 19:01:22
Writing application         : mkvmerge v7.3.0 ('Nouages') 64bit built on Oct 22 2014 18:53:34
Writing library             : libebml v1.3.0 + libmatroska v1.4.1

Video
ID                          : 1
Format                      : AVC
Format/Info                 : Advanced Video Codec
Format profile              : High@L4.1
Format settings             : CABAC / 4 Ref Frames
Format settings, CABAC      : Yes
Format settings, ReFrames   : 4 frames
Codec ID                    : V_MPEG4/ISO/AVC
Duration                    : 1 h 58 min
Bit rate                    : 12.0 Mb/s
Width                       : 1 920 pixels
Height                      : 804 pixels
Display aspect ratio        : 2.40:1
Frame rate mode             : Constant
Frame rate                  : 23.976 (24000/1001) FPS
Color space                 : YUV
Chroma subsampling          : 4:2:0
Bit depth                   : 8 bits
Scan type                   : Progressive
Bits/(Pixel*Frame)          : 0.324
Stream size                 : 9.75 GiB (86%)
Writing library             : x264 core 155 r2867+74 66b5600 t_mod_Custom_2 [8-bit@all X86_64]
Encoding settings           : cabac=1 / ref=4 / deblock=1:-3:-3 / analyse=0x3:0x133 / me=umh / subme=11 / psy=1 / fade_compensate=0.00 / psy_rd=0.95:0.10 / mixed_ref=1 / me_range=48 / chroma_me=1 / trellis=2 / 8x8dct=1 / cqm=0 / deadzone=21,11 / fast_pskip=0 / chroma_qp_offset=-4 / threads=12 / lookahead_threads=3 / sliced_threads=0 / nr=0 / decimate=1 / interlaced=0 / bluray_compat=0 / constrained_intra=0 / fgo=0 / bframes=10 / b_pyramid=2 / b_adapt=2 / b_bias=0 / direct=3 / weightb=1 / open_gop=0 / weightp=2 / keyint=250 / keyint_min=23 / scenecut=40 / intra_refresh=0 / rc_lookahead=30 / rc=2pass / mbtree=0 / bitrate=12000 / ratetol=1.0 / qcomp=0.70 / qpmin=0:0:0 / qpmax=69:69:69 / qpstep=4 / cplxblur=20.0 / qblur=0.5 / vbv_maxrate=35000 / vbv_bufsize=35000 / nal_hrd=none / filler=0 / ip_ratio=1.40 / pb_ratio=1.30 / aq=3:1.00 / aq-sensitivity=10.00 / aq-factor=1.00:1.00:1.00 / aq2=0 / aq3=2:[0.50:0.50]:[0.50:0.50]:[0.50:0.50]:[0.50:0.50] / aq3-sensitivity=10.00 / aq3-factor=[1.00:1.00]:[1.00:1.00]:[1.00:1.00] / aq3-boundary=192:64:24
Language                    : English
Default                     : Yes
Forced                      : No

Audio #1
ID                          : 2
Format                      : AC-3
Format/Info                 : Audio Coding 3
Commercial name             : Dolby Digital
Codec ID                    : A_AC3
Duration                    : 1 h 58 min
Bit rate mode               : Constant
Bit rate                    : 384 kb/s
Channel(s)                  : 6 channels
Channel layout              : L R C LFE Ls Rs
Sampling rate               : 48.0 kHz
Frame rate                  : 31.250 FPS (1536 SPF)
Bit depth                   : 16 bits
Compression mode            : Lossy
Stream size                 : 324 MiB (3%)
Title                       : Dub [iTunes]
Language                    : Russian
Service kind                : Complete Main
Default                     : Yes
Forced                      : Yes

Audio #2
ID                          : 3
Format                      : DTS
Format/Info                 : Digital Theater Systems
Codec ID                    : A_DTS
Duration                    : 1 h 58 min
Bit rate mode               : Constant
Bit rate                    : 1 509 kb/s
Channel(s)                  : 6 channels
Channel layout              : C L R Ls Rs LFE
Sampling rate               : 48.0 kHz
Frame rate                  : 93.750 FPS (512 SPF)
Bit depth                   : 24 bits
Compression mode            : Lossy
Stream size                 : 1.24 GiB (11%)
Title                       : Original
Language                    : English
Default                     : No
Forced                      : No

Text #1
ID                          : 4
Format                      : UTF-8
Codec ID                    : S_TEXT/UTF8
Codec ID/Info               : UTF-8 Plain Text
Duration                    : 1 h 30 min
Bit rate                    : 0 b/s
Count of elements           : 4
Stream size                 : 209 Bytes (0%)
Title                       : Forced
Language                    : Russian
Default                     : Yes
Forced                      : Yes

Text #2
ID                          : 5
Format                      : UTF-8
Codec ID                    : S_TEXT/UTF8
Codec ID/Info               : UTF-8 Plain Text
Duration                    : 1 h 57 min
Bit rate                    : 88 b/s
Count of elements           : 1781
Stream size                 : 76.0 KiB (0%)
Title                       : Full
Language                    : Russian
Default                     : No
Forced                      : No

Text #3
ID                          : 6
Format                      : UTF-8
Codec ID                    : S_TEXT/UTF8
Codec ID/Info               : UTF-8 Plain Text
Duration                    : 1 h 57 min
Bit rate                    : 104 b/s
Count of elements           : 2152
Stream size                 : 89.8 KiB (0%)
Title                       : SDH
Language                    : Russian
Default                     : No
Forced                      : No

Text #4
ID                          : 7
Format                      : UTF-8
Codec ID                    : S_TEXT/UTF8
Codec ID/Info               : UTF-8 Plain Text
Duration                    : 1 h 50 min
Bit rate                    : 65 b/s
Count of elements           : 1930
Stream size                 : 53.5 KiB (0%)
Title                       : Full
Language                    : English
Default                     : No
Forced                      : No

Text #5
ID                          : 8
Format                      : UTF-8
Codec ID                    : S_TEXT/UTF8
Codec ID/Info               : UTF-8 Plain Text
Duration                    : 1 h 57 min
Bit rate                    : 68 b/s
Count of elements           : 2136
Stream size                 : 59.3 KiB (0%)
Title                       : SDH
Language                    : English
Default                     : No
Forced                      : No

Text #6
ID                          : 9
Format                      : UTF-8
Codec ID                    : S_TEXT/UTF8
Codec ID/Info               : UTF-8 Plain Text
Duration                    : 1 h 57 min
Bit rate                    : 98 b/s
Count of elements           : 2138
Stream size                 : 85.2 KiB (0%)
Title                       : SDH Colored
Language                    : English
Default                     : No
Forced                      : No

Menu
00:00:00.000                : en:00:00:00.000
00:04:03.034                : en:00:04:03.034
00:10:16.407                : en:00:10:16.407
00:13:39.861                : en:00:13:39.861
00:21:25.451                : en:00:21:25.451
00:29:07.829                : en:00:29:07.829
00:36:09.084                : en:00:36:09.084
00:40:56.579                : en:00:40:56.579
00:50:17.431                : en:00:50:17.431
00:58:59.077                : en:00:58:59.077
01:04:56.434                : en:01:04:56.434
01:12:54.287                : en:01:12:54.287
01:18:32.124                : en:01:18:32.124
01:24:44.913                : en:01:24:44.913
01:29:47.340                : en:01:29:47.340
01:36:16.270                : en:01:36:16.270
01:43:35.334                : en:01:43:35.334
01:46:59.830                : en:01:46:59.830



Скриншоты:
[+] Всего файлов в раздаче - 1:
Ant-Man.and.the.Wasp.2018.BluRay.1080p.Rus.Eng.TeamHD-CHD.mkv11.31 GB

Текущая раздача:
ДатаКомментарии    РазмерПиры
2018-10-06 U Человек-муравей и Оса / Ant-Man and the Wasp (2018) BDRip 1080p от TeamHD | iTunes 11.31 GB ↑ 1680 ↓ 1212

Показать еще раздачи по запросу человек:
Вчера U Загадки века. Леонид Колосов: наш человек в Коза ностра (2018) SATRip 533.63 MB ↑ 32 ↓ 4
2018-12-15 U Человек на Луне / First Man (2018) WEB-DLRip от Scarabey | iTunes 1К1.45 GB ↑ 108 ↓ 23
2018-12-15 U Человек на Луне / First Man (2018) WEB-DLRip от Scarabey | iTunes 3К2.18 GB ↑ 77 ↓ 25
2018-12-14 U Человек на Луне / First Man (2018) WEB-DLRip от GeneralFilm | iTunes 1.46 GB ↑ 214 ↓ 48
2018-12-13 U Человек на Луне / First Man (2018) WEB-DLRip-AVC | iTunes 744.37 MB ↑ 60 ↓ 60
2018-12-13 U Человек на Луне / First Man (2018) WEB-DLRip-AVC от OlLanDGroup | iTunes 2.16 GB ↑ 1 ↓ 20
2018-12-13 U Ричард Морган - Черный человек (2018) MP3 1.47 GB ↑ 48 ↓ 12

Отзывы
Зарегистрируйтесь чтобы добавить комментарий.
Обратная связь
Copyleft ©