↑↓Torrent.by
Поиск
Логин: Регистрация
Пароль: Восстановить пароль
Загрузка...

Мег: Монстр глубины / The Meg (2018) WEBRip 1080p | HDrezka Studio

Скачать meg-monstr-glubiny-the-2018-webrip-1080p-hdrezka-studio.torrent
U Магнитная ссылка Размер: 5.32 GB Раздают: 766 Качают: 380 Добавлен: 2018-10-06 12:48:06
Мег: Монстр глубины / The Meg (2018) WEBRip 1080p | HDrezka Studio

Название: Мег: Монстр глубины
Оригинальное название: The Meg
Год выхода: 2018
Жанр: Ужасы, фантастика, боевик, триллер
Режиссер: Джон Тёртелтауб
В ролях: Джейсон Стэйтем, Бинбин Ли, Рэйн Уилсон, Клифф Кёртис, Уинстон Чао, Шуя Софиа Цай, Руби Роуз, Пейдж Кеннеди, Роберт Тейлор (II), Оулавюр Дарри Оулафссон, Джессика МакНэми, Маси Ока, Хунмэй Мэй, Витхая Пансрингарм, Роб Уильямс, Таванда Маниймо

О фильме:
Глубоководный батискаф, осуществляющий наблюдение в рамках международной программы по изучению подводной жизни, был атакован огромным существом, которое все считали давно вымершим. Неисправный аппарат теперь лежит на дне глубочайшей впадины Тихого океана... с оказавшимся в ловушке экипажем. Их время на исходе. Китайская океанограф-новатор Суинь вопреки желанию своей дочери зовет спасателя-подводника Джонаса Тейлора, чтобы тот помог спасти команду и океан от невиданной угрозы - доисторической 23-метровой акулы, мегалодона. Никто и подумать не мог, что много лет назад Тейлор уже сталкивался с этим чудовищным созданием.

Страна: Китай, США
Студия: Apelles Entertainment, Di Bonaventura Pictures, Flagship Entertainment Group
Продолжительность: 01:54:39
Перевод: Профессиональный многоголосый | HDRezka Studio

Файл
Кодек: AVC
Качество: WEBRip 1080p | The.Meg.2018.SUBBED.1080p.WEBRip.DD5.1.x264-SHITBOX
Видео: MPEG-4 AVC, 1920x804, 6000 Kбит/с, 23.976 кадр/с
Аудио #1: Русский ( АС3, 2ch, 256 Кбит/с, 48.0 KHz) Профессиональный (многоголосый, закадровый) HDRezka Studio
Аудио #1: Английский ( АС3, 6ch, 640 Кбит/с, 48.0 KHz)
Субтитры: китайские, английские (вшитые)


[+] MediaInfo
Источник: The.Meg.2018.SUBBED.1080p.WEBRip.DD5.1.x264-SHITBOX
General
Unique ID                      : 190585495055359718194503093856296141738 (0x8F616E626BFE7A90BBC93C4BFEBE83AA)
Complete name                  : The.Meg.2018.WEBRip.1080p.mkv
Format                         : Matroska
Format version                 : Version 4 / Version 2
File size                      : 5.32 GiB
Duration                       : 1h 54mn
Overall bit rate               : 6 648 Kbps
Encoded date                   : UTC 2018-10-05 13:37:18
Writing application            : mkvmerge v7.1.0 ('Good Love') 64bit built on Jul 27 2014 13:06:55
Writing library                : libebml v1.3.0 + libmatroska v1.4.1

Video
ID                             : 1
Format                         : AVC
Format/Info                    : Advanced Video Codec
Format profile                 : High@L4.1
Format settings, CABAC         : Yes
Format settings, ReFrames      : 4 frames
Codec ID                       : V_MPEG4/ISO/AVC
Duration                       : 1h 54mn
Bit rate                       : 6 000 Kbps
Width                          : 1 920 pixels
Height                         : 804 pixels
Display aspect ratio           : 2.40:1
Frame rate mode                : Constant
Frame rate                     : 23.976 (24000/1001) fps
Color space                    : YUV
Chroma subsampling             : 4:2:0
Bit depth                      : 8 bits
Scan type                      : Progressive
Bits/(Pixel*Frame)             : 0.162
Stream size                    : 4.61 GiB (87%)
Writing library                : x264 core 148 r2795M aaa9aa8
Encoding settings              : cabac=1 / ref=4 / deblock=1:0:0 / analyse=0x3:0x113 / me=umh / subme=9 / psy=1 / psy_rd=1.00:0.00 / mixed_ref=1 / me_range=16 / chroma_me=1 / trellis=2 / 8x8dct=1 / cqm=0 / deadzone=21,11 / fast_pskip=1 / chroma_qp_offset=-2 / threads=40 / lookahead_threads=3 / sliced_threads=0 / nr=0 / decimate=1 / interlaced=0 / bluray_compat=0 / constrained_intra=0 / bframes=3 / b_pyramid=2 / b_adapt=2 / b_bias=0 / direct=3 / weightb=1 / open_gop=0 / weightp=2 / keyint=250 / keyint_min=23 / scenecut=40 / intra_refresh=0 / rc_lookahead=50 / rc=abr / mbtree=1 / bitrate=6000 / ratetol=1.0 / qcomp=0.60 / qpmin=0 / qpmax=69 / qpstep=4 / ip_ratio=1.40 / aq=1:1.00
Language                       : English
Default                        : Yes
Forced                         : No

Audio #1
ID                             : 2
Format                         : AC-3
Format/Info                    : Audio Coding 3
Mode extension                 : CM (complete main)
Format settings, Endianness    : Big
Codec ID                       : A_AC3
Duration                       : 1h 49mn
Bit rate mode                  : Constant
Bit rate                       : 256 Kbps
Channel(s)                     : 2 channels
Channel positions              : Front: L R
Sampling rate                  : 48.0 KHz
Frame rate                     : 31.250 fps (1536 spf)
Compression mode               : Lossy
Stream size                    : 201 MiB (4%)
Title                          : MVO | HDrezka Studio
Language                       : Russian
Default                        : Yes
Forced                         : No

Audio #2
ID                             : 3
Format                         : AC-3
Format/Info                    : Audio Coding 3
Mode extension                 : CM (complete main)
Format settings, Endianness    : Big
Codec ID                       : A_AC3
Duration                       : 1h 54mn
Bit rate mode                  : Constant
Bit rate                       : 640 Kbps
Channel(s)                     : 6 channels
Channel positions              : Front: L C R, Side: L R, LFE
Sampling rate                  : 48.0 KHz
Frame rate                     : 31.250 fps (1536 spf)
Compression mode               : Lossy
Stream size                    : 525 MiB (10%)
Language                       : English
Default                        : No
Forced                         : No



Скриншоты:
[+] Всего файлов в раздаче - 1:
The.Meg.2018.WEBRip.1080p.mkv5.32 GB

Текущая раздача:
ДатаКомментарии    РазмерПиры
2018-10-06 U Мег: Монстр глубины / The Meg (2018) WEBRip 1080p | HDrezka Studio 5.32 GB ↑ 766 ↓ 380

Показать еще раздачи по запросу монстр:
2018-10-03 U Мег: Монстр глубины / The Meg (2018) HDTVRip от Dalemake | HDrezka Studio 1К1.45 GB ↑ 742 ↓ 199
2018-10-03 U Мег: Монстр глубины / The Meg (2018) WEBRip 1080р | HDrezka Studio 3.80 GB ↑ 745 ↓ 400
2018-10-03 U Мег: Монстр глубины / The Meg (2018) WEBRip | HDrezka Studio 1.37 GB ↑ 1866 ↓ 515
2018-07-14 U Монстр / Monster [S01] (2017) WEBRip | D 5.09 GB ↑ 110 ↓ 75
2018-03-02 U Плюшевый монстр / Lino: Uma Aventura de Sete Vidas (2017) WEB-DLRip | iTunes 698.97 MB ↑ 168 ↓ 17
2018-03-01 U Плюшевый монстр / Lino: Uma Aventura de Sete Vidas (2017) WEB-DLRip от R.G.Resident | iTunes 1.37 GB ↑ 115 ↓ 38
2018-03-01 U Плюшевый монстр / Lino: Uma Aventura de Sete Vidas (2017) WEB-DL 1080p | iTunes 3.56 GB ↑ 216 ↓ 67

Отзывы
Зарегистрируйтесь чтобы добавить комментарий.
Обратная связь
Copyleft ©