↑↓Torrent.by
Поиск
Логин: Регистрация
Пароль: Восстановить пароль
Загрузка...

Шаг в бездну [01-04 из 04] (2018) SATRip от GeneralFilm

Скачать shag-v-bezdnu-01-04-iz-2018-satrip-ot-generalfilm.torrent
U Магнитная ссылка Размер: 2.22 GB Раздают: 377 Качают: 236 Добавлен: 2018-10-06 17:42:25
Шаг в бездну [01-04 из 04] (2018) SATRip от GeneralFilm

Оригинальное название: Шаг в бездну
Год выпуска: 2018
Жанр:  Детектив
Режиссер: Дмитрий Аверин (II)
В ролях: Алиса Варова, Марк Вдовин, Елена Цыплакова, Алексей Нилов, Антон Багров, Аполлинария Кирилец, Игорь Юдин, Оксана Скакун, Георгий Маришин, Борис Талах, Юрий Пимкин, Ирина Демидкина

О фильме:
Молодой биолог Денис Алчанов привозит из Северной столицы невесту Нику. Он готов подарить ей рай своего детства: море, солнце и все красоты заповедника "Аджерха-Чарлык". Но медовый месяц оборачивается кошмаром. Во время прыжка с парашютом Ника и инструктор Валентина становятся свидетелями страшной аварии: внизу, в ущелье, разбивается машина. На земле о происшествии ничего не знают. Запись с мини-камеры парашюта таинственно исчезает. А на следующий день Валентину находят мёртвой.
Ника и Денис пытаются проникнуть на место аварии, чтобы что-то понять, но выясняется, что это запретная территория, куда много лет не ступала нога человека. Что там творится и откуда там могла появиться машина? Тайны Чарлыкского заповедника, где по легенде прячется опасное доисторическое чудовище, не дают покоя Нике. Ей кажется, что отец Дениса что-то знает. Подозрения перерастают в уверенность, когда она находит в его компьютере флешку с той самой записью аварии, которая исчезла после их с Валентиной рокового прыжка.

Страна: Россия
Студия: «Леандра продакшн компани»
Продолжительность: 4 x ~ 00:45:00
Перевод: Не требуется
Субтитры: нет

Файл
Формат: avi
Качество: SATRip
Видео: XviD build 73, 720x400 (16:9), 25.000 fps, ~ 1550 Kbps (~ 0.210 bit/pixel)
Звук: 48.0 kHz, AC3, 2/0 ch, 192 kbps

Релиз:
[+] MediaInfo
General
Complete name               : D:RazdachiShag.v.bezdnu.2018.XviD.Satrip.GeneralFilmShag.v.bezdnu.e01.avi
Format                      : AVI
Format/Info                 : Audio Video Interleave
File size                   : 554 MiB
Duration                    : 44 min 17 s
Overall bit rate            : 1 749 kb/s
Writing application         : VirtualDubMod 1.5.10.3 | www.virtualdub-fr.org || (build 2550/release)
Writing library             : VirtualDubMod build 2550/release

Video
ID                          : 0
Format                      : MPEG-4 Visual
Format profile              : Advanced Simple@L5
Format settings, BVOP       : 1
Format settings, QPel       : No
Format settings, GMC        : No warppoints
Format settings, Matrix     : Custom
Codec ID                    : XVID
Codec ID/Hint               : XviD
Duration                    : 44 min 17 s
Bit rate                    : 1 547 kb/s
Width                       : 720 pixels
Height                      : 400 pixels
Display aspect ratio        : 16:9
Frame rate                  : 25.000 FPS
Color space                 : YUV
Chroma subsampling          : 4:2:0
Bit depth                   : 8 bits
Scan type                   : Progressive
Compression mode            : Lossy
Bits/(Pixel*Frame)          : 0.215
Stream size                 : 490 MiB (88%)
Writing library             : XviD 73

Audio
ID                          : 1
Format                      : AC-3
Format/Info                 : Audio Coding 3
Format settings, Endianness : Big
Codec ID                    : 2000
Duration                    : 44 min 17 s
Bit rate mode               : Constant
Bit rate                    : 192 kb/s
Channel(s)                  : 2 channels
Channel positions           : Front: L R
Sampling rate               : 48.0 kHz
Frame rate                  : 31.250 FPS (1536 SPF)
Bit depth                   : 16 bits
Compression mode            : Lossy
Stream size                 : 60.8 MiB (11%)
Alignment                   : Split accross interleaves
Interleave, duration        : 40  ms (1.00 video frame)
Interleave, preload duratio : 500  ms
Service kind                : Complete Main



Скриншоты:
[+] Всего файлов в раздаче - 4:
Shag.v.bezdnu.e01.avi554.15 MB
Shag.v.bezdnu.e02.avi574.20 MB
Shag.v.bezdnu.e03.avi587.74 MB
Shag.v.bezdnu.e04.avi558.35 MB

Текущая раздача:
ДатаКомментарии    РазмерПиры
2018-10-06 U Шаг в бездну [01-04 из 04] (2018) SATRip от GeneralFilm 2.22 GB ↑ 377 ↓ 236

Похожие раздачи по запросу - бездну:
2018-10-07 U Шаг в бездну [01-04 из 04] (2018) WEB-DLRip-AVC от Files-x 2.28 GB ↑ 198 ↓ 100
2018-10-06 U Шаг в бездну [01-04 из 04] (2018) SATRip-AVC 2.28 GB ↑ 46 ↓ 13
2014-03-05 U Поцеловать бездну / Kiss the Abyss (2012) Web-DLRip от Torrange | L2 1К744.21 MB ↑ 79 ↓ 83

Отзывы
Зарегистрируйтесь чтобы добавить комментарий.
Обратная связь
Copyleft ©