↑↓Torrent.by
Поиск
Логин: Регистрация
Пароль: Восстановить пароль
Загрузка...

Это чертово сердце / Dieses bescheuerte Herz (2017) BDRip | iTunes

Скачать eto-chertovo-serdce-dieses-bescheuerte-herz-2017-bdrip-itunes.torrent
U Магнитная ссылка Размер: 1.46 GB Раздают: 1128 Качают: 365 Добавлен: 2018-10-07 09:46:57
Это чертово сердце / Dieses bescheuerte Herz (2017) BDRip | iTunes

Название: Это чертово сердце
Оригинальное название: Dieses bescheuerte Herz
Год выхода: 2017
Жанр: Драма, комедия
Страна: Германия
Перевод: Дублированный | iTunes
Продолжительность: 01:46:21
Режиссер: Марк Ротемунд
В ролях: Элиас ЭмБарек, Филип Шварц, Надина Вриц, Уве Пройсс, Лиза Биттер, Юрген Тонкель, Бруно Саутер, Лу Бишофф, Себастьян Герольд, Ким Гиршнер и др.

О фильме: Единственное занятие Ленни — бесконечные вечеринки с друзьями. Он привык, что любой его каприз оплачивает отец. В одном городе с ним живет 15-летний Дэвид, который почти всё своё время проводит дома. У Дэвида врожденный порок сердца и прогнозы врачей не слишком утешительны. Отец Ленни, устав от безделья сына, поручает тому заботу о Дэвиде. Неожиданно эти двое становятся друг для друга незаменимыми. Ленни помогает парню ощутить вкус к жизни и осуществить мечты, а Дэвид, в свою очередь, дает ему возможность почувствовать ответственность за свою жизнь и жизнь тех, кто рядом.

Файл
Формат: AVI
Качество: BDRip
Видео: Xvid 73, 720x304, ~1574 kbps, 24,000 fps
Звук: русский, AC3, 5.1 ch, 48 kHz, 384 kbps | iTunes
Субтитры: нет


[+] Исходник
http://lostpic.net/image/nzzY



[+] MI
General
Полное имя                               : F:TorrentEtoChertovoSerdceBDRip.avi
Формат                                   : AVI
Формат/Информация                        : Audio Video Interleave
Профиль формата                          : OpenDML
Размер файла                             : 1.46 GiB
Продолжительность                        : 1 h 46 min
Общий поток                              : 1 970 kb/s
Программа кодирования                    : XviD4PSP 6.0 / 54.27.101

Video
Идентификатор                            : 0
Формат                                   : MPEG-4 Visual
Профиль формата                          : Advanced Simple@L5
Настройки формата                        : BVOP2 / Custom Matrix
Параметр BVOP формата                    : 2
Параметр QPel формата                    : No
Параметр GMC формата                     : No warppoints
Параметр матрицы формата                 : Custom
Идентификатор кодека                     : XVID
Идентификатор кодека/Подсказка           : XviD
Продолжительность                        : 1 h 46 min
Битрейт                                  : 1 574 kb/s
Ширина                                   : 720 pixels
Высота                                   : 304 pixels
Соотношение сторон                       : 2.35:1
Частота кадров                           : 24.000 FPS
Цветовое пространство                    : YUV
Субдискретизация насыщенности            : 4:2:0
Битовая глубина                          : 8 bits
Тип развёртки                            : Progressive
Метод сжатия                             : Lossy
Бит/(Пиксели*Кадры)                      : 0.300
Размер потока                            : 1.17 GiB (80%)
Библиотека кодирования                   : XviD 73

Audio
Идентификатор                            : 1
Формат                                   : AC-3
Формат/Информация                        : Audio Coding 3
Идентификатор кодека                     : 2000
Продолжительность                        : 1 h 46 min
Вид битрейта                             : Constant
Битрейт                                  : 384 kb/s
Каналы                                   : 6 channels
Расположение каналов                     : Front: L C R, Side: L R, LFE
Частота                                  : 48.0 kHz
Частота кадров                           : 31.250 FPS (1536 SPF)
Битовая глубина                          : 16 bits
Метод сжатия                             : Lossy
Размер потока                            : 292 MiB (19%)
Выравнивание                             : Aligned on interleaves
Продолжительность промежутка             : 32  ms (0.77 video frame)




Скриншоты:
[+] Всего файлов в раздаче - 1:
EtoChertovoSerdceBDRip.avi1.46 GB

Текущая раздача:
ДатаКомментарии    РазмерПиры
2018-10-07 U Это чертово сердце / Dieses bescheuerte Herz (2017) BDRip | iTunes 1 К 1.46 GB ↑ 1128 ↓ 365

Похожие раздачи по запросу - чертово:
2018-10-07 U Это чертово сердце / Dieses bescheuerte Herz (2017) BDRip-AVC | iTunes 2.17 GB ↑ 210 ↓ 63
2018-10-07 U Это чертово сердце / Dieses bescheuerte Herz (2017) BDRip 720p | iTunes 4.10 GB ↑ 363 ↓ 176
2018-10-07 U Это чертово сердце / Dieses bescheuerte Herz (2017) BDRip 1080p | iTunes 7.74 GB ↑ 639 ↓ 344

Отзывы
den_bn
Вариация на тему "Достучаться до небес"?

Зарегистрируйтесь чтобы добавить комментарий.
Обратная связь
Copyleft ©