↑↓Torrent.by
Поиск
Логин: Регистрация
Пароль: Восстановить пароль
Загрузка...

Коллекторы / The Debt Collector (2018) BDRip 720p от TeamHD | iTunes

Скачать kollektory-the-debt-collector-2018-bdrip-720p-ot-teamhd-itunes.torrent
U Магнитная ссылка Размер: 3.38 GB Раздают: 48 Качают: 34 Добавлен: 2018-10-08 05:36:54
Коллекторы / The Debt Collector (2018) BDRip 720p от TeamHD | iTunes

Название: Коллекторы
Оригинальное название: The Debt Collector
Год выхода: 2018
Жанр: Боевик
Режиссер: Джесси Джонсон
В ролях: Скотт Эдкинс, Майкл Паре, Тони Тодд, Владимир Кулих, Роберт Раслер, Луис Мэндилор, Селина Ло, Нихан Гар, Сара Финли, Ессам Феррис

О фильме: Чтобы спасти свою школу, мастер смешанных боевых искусств нанимается коллектором к криминальному авторитету, но сталкивается с необходимостью адаптировать свои моральные устои к беспощадным правилам мира больших денег.

Страна: США
Студия: Tarzana Product
Продолжительность: 01:35:55
Перевод: Дублированный | iTunes

Качество: BDRip 720p
Видео: MPEG-4 AVC, 1280x544, 3889 Kbit/s, 23.976 fps
Звук:
Аудио #01: 48 kHz, AC3, 5.1, 384 Kbps | iTunes | RUS |
Аудио #02: 48 kHz, DTS, 5.1, 768 Kbps | Оригинал |  ENG |
Субтитры: Английские

Релиз: Автор релиза:


[+] MI
General
Unique ID                   : 13820692211085356762026052617336309361 (0xA65C4BC4B7071A16A7792C82CF4C671)
Complete name               : D:Video111na timThe.Debt.Collector.2018.720p.BluRay.Rus.Eng.TeamHD-HDS.mkv
Format                      : Matroska
Format version              : Version 4
File size                   : 3.38 GiB
Duration                    : 1 h 35 min
Overall bit rate            : 5 044 kb/s
Movie name                  : The Debt Collector (2018) TeamHD-селезень
Encoded date                : UTC 2018-10-07 18:38:16
Writing application         : mkvmerge v23.0.0 ('The Bride Said No') 64-bit
Writing library             : libebml v1.3.6 + libmatroska v1.4.9

Video
ID                          : 1
Format                      : AVC
Format/Info                 : Advanced Video Codec
Format profile              : High@L4.1
Format settings             : CABAC / 12 Ref Frames
Format settings, CABAC      : Yes
Format settings, ReFrames   : 12 frames
Codec ID                    : V_MPEG4/ISO/AVC
Duration                    : 1 h 35 min
Bit rate                    : 3 889 kb/s
Width                       : 1 280 pixels
Height                      : 544 pixels
Display aspect ratio        : 2.35:1
Frame rate mode             : Constant
Frame rate                  : 23.976 (24000/1001) FPS
Color space                 : YUV
Chroma subsampling          : 4:2:0
Bit depth                   : 8 bits
Scan type                   : Progressive
Bits/(Pixel*Frame)          : 0.233
Stream size                 : 2.61 GiB (77%)
Title                       : vincelwq@HDSky
Writing library             : x264 core 148 r2705+45 bdacf7a 7mod [8-bit@all X86_64]
Encoding settings           : cabac=1 / ref=12 / deblock=1:-3:-3 / analyse=0x3:0x113 / me=umh / subme=11 / psy=1 / fade_compensate=0.00 / psy_rd=1.00:0.05 / mixed_ref=1 / me_range=32 / chroma_me=1 / trellis=2 / 8x8dct=1 / cqm=0 / deadzone=21,11 / fast_pskip=0 / chroma_qp_offset=-2 / threads=20 / lookahead_threads=3 / sliced_threads=0 / nr=0 / decimate=1 / interlaced=0 / bluray_compat=0 / constrained_intra=0 / fgo=0 / bframes=8 / b_pyramid=2 / b_adapt=2 / b_bias=0 / direct=3 / weightb=1 / open_gop=0 / weightp=2 / keyint=250 / keyint_min=23 / scenecut=40 / intra_refresh=0 / rc=crf / mbtree=0 / crf=16.0000 / qcomp=0.60 / qpmin=0:0:0 / qpmax=69:69:69 / qpstep=4 / ip_ratio=1.40 / pb_ratio=1.30 / aq=4:0.90 / aq-sensitivity=10.00 / aq-factor=1.00:1.00:1.00 / aq2=0 / aq3=0
Language                    : English
Default                     : Yes
Forced                      : No

Audio #1
ID                          : 2
Format                      : AC-3
Format/Info                 : Audio Coding 3
Commercial name             : Dolby Digital
Codec ID                    : A_AC3
Duration                    : 1 h 35 min
Bit rate mode               : Constant
Bit rate                    : 384 kb/s
Channel(s)                  : 6 channels
Channel layout              : L R C LFE Ls Rs
Sampling rate               : 48.0 kHz
Frame rate                  : 31.250 FPS (1536 SPF)
Bit depth                   : 16 bits
Compression mode            : Lossy
Stream size                 : 263 MiB (8%)
Title                       : iTunes
Language                    : Russian
Service kind                : Complete Main
Default                     : Yes
Forced                      : Yes

Audio #2
ID                          : 3
Format                      : DTS
Format/Info                 : Digital Theater Systems
Codec ID                    : A_DTS
Duration                    : 1 h 35 min
Bit rate mode               : Constant
Bit rate                    : 768 kb/s
Channel(s)                  : 6 channels
Channel layout              : C L R Ls Rs LFE
Sampling rate               : 48.0 kHz
Frame rate                  : 93.750 FPS (512 SPF)
Bit depth                   : 24 bits
Compression mode            : Lossy
Stream size                 : 527 MiB (15%)
Title                       : Original
Language                    : English
Default                     : No
Forced                      : No

Text
ID                          : 4
Format                      : UTF-8
Codec ID                    : S_TEXT/UTF8
Codec ID/Info               : UTF-8 Plain Text
Duration                    : 1 h 30 min
Bit rate                    : 74 b/s
Count of elements           : 1524
Stream size                 : 49.4 KiB (0%)
Title                       : Full
Language                    : English
Default                     : No
Forced                      : No

Menu
00:00:00.000                : en:00:00:00.000
00:02:04.624                : en:00:02:04.624
00:11:30.648                : en:00:11:30.648
00:21:04.472                : en:00:21:04.472
00:32:42.669                : en:00:32:42.669
00:42:33.926                : en:00:42:33.926
00:47:42.485                : en:00:47:42.485
00:53:09.895                : en:00:53:09.895
01:02:11.061                : en:01:02:11.061
01:09:34.962                : en:01:09:34.962
01:24:34.945                : en:01:24:34.945
01:32:50.273                : en:01:32:50.273



Скриншоты:
[+] Всего файлов в раздаче - 1:
The.Debt.Collector.2018.720p.BluRay.Rus.Eng.TeamHD-HDS.mkv3.38 GB

Текущая раздача:
ДатаКомментарии    РазмерПиры
2018-10-08 U Коллекторы / The Debt Collector (2018) BDRip 720p от TeamHD | iTunes 3.38 GB ↑ 48 ↓ 34

Показать еще раздачи по запросу коллекторы:
2018-10-10 U Коллекторы / The Debt Collector (2018) BDRip от ExKinoRay | iTunes 1К1.42 GB ↑ 92 ↓ 21
2018-10-09 U Коллекторы / The Debt Collector (2018) HDRip-AVC | iTunes 743.23 MB ↑ 60 ↓ 17
2018-10-09 U Коллекторы / The Debt Collector (2018) HDRip от Scarabey | iTunes 1.40 GB ↑ 102 ↓ 20
2018-10-09 U Коллекторы / The Debt Collector (2018) BDRip-AVC от ExKinoRay | iTunes 1.78 GB ↑ 126 ↓ 26
2018-10-09 U Коллекторы / The Debt Collector (2018) BDRip 720p от k.e.n & MegaPeer | iTunes 3.57 GB ↑ 187 ↓ 32
2018-10-08 U Коллекторы / The Debt Collector (2018) BDRip 1080p от TeamHD | iTunes 7.24 GB ↑ 83 ↓ 40
2018-10-08 U Коллекторы / The Debt Collector (2018) BDRip от MegaPeer | iTunes 1.42 GB ↑ 203 ↓ 66

Отзывы
Зарегистрируйтесь чтобы добавить комментарий.
Обратная связь
Copyleft ©