↑↓Torrent.by
Поиск
Логин: Регистрация
Пароль: Восстановить пароль
Загрузка...

Монстры на каникулах 3: Море зовёт / Hotel Transylvania 3: Summer Vacation (2018) UHD BDRemux 2160p от TeamHD | 4K | HDR | iTunes

Скачать monstry-na-kanikulah-3-more-zovet-hotel-transylvania-summer-vacation-2018-uhd-bdremux-2160p-ot-teamhd-4k-hdr-itunes.torrent
U Магнитная ссылка Размер: 38.12 GB Раздают: 42 Качают: 14 Добавлен: 2018-10-08 05:37:41
Монстры на каникулах 3: Море зовёт / Hotel Transylvania 3: Summer Vacation (2018) UHD BDRemux 2160p от TeamHD | 4K | HDR | iTunes

Название: Монстры на каникулах 3: Море зовёт
Оригинальное название: Hotel Transylvania 3: Summer Vacation
Год выхода: 2018
Жанр: Мультфильм, фэнтези, комедия, семейный, полнометражный
Режиссер: Генндий Тартаковский
В ролях: Мэл Брукс, Адам Сэндлер, Селена Гомес, Энди Сэмберг, Кэтрин Хан, Фрэн Дрешер, Стив Бушеми, Дэвид Спейд, Тара Стронг, Кигэн-Майкл Ки

О фильме: На этот раз Дракула вместе со своими друзьями отправляется в круиз на шикарном лайнере. Развлечения там на любой вкус: от монстробаскетбола и экзотических экскурсий, до лунных ванн. Неожиданно Дракула влюбляется в капитана корабля — загадочную и прекрасную Эрику, и его дочка Мэвис понимает, что поездка может превратиться в кошмар: ведь Эрика хранит ужасный секрет, который ставит под угрозу существование всех монстров!

Страна: США
Студия: Columbia Pictures, Media Rights Capital (MRC), Sony Pictures Animation
Продолжительность: 01:37:23
Перевод: Дублированный | iTunes

Качество: BDRemux 2160p
Видео: MPEG-H HEVC HDR Video, 3840x2160, 51.6 Mbit/s, 23.976 fps
Звук:
Аудио #01: 48 kHz, AC3, 5.1, 384 Kbps | iTunes | RUS |
Аудио #02: 48 kHz, AC3, 2.0, 160 Kbps | iTunes | UKR |
Аудио #03: 48 kHz, TrueHD, 7.1, 3186 Kbps | Оригинал |  ENG |
Аудио #04: 48 kHz, AC3, 5.1, 640 Kbps | Оригинал |  ENG |
Субтитры: Русские (forced, full), украинские (full), английские (full, SDH)

Релиз: Автор релиза:


[+] MI
General
Unique ID                   : 299504477592098794063989014748673117353 (0xE15276D4FA0ED4E9F0BBEE4094248CA9)
Complete name               : F:Video1Hotel.Transylvania.3.2018.UHD.2160p.BDRemux.TeamHD.mkv
Format                      : Matroska
Format version              : Version 4
File size                   : 38.1 GiB
Duration                    : 1 h 37 min
Overall bit rate mode       : Variable
Overall bit rate            : 56.0 Mb/s
Movie name                  : Hotel Transylvania 3: Summer Vacation 4K (2018) TeamHD-селезень
Encoded date                : UTC 2018-10-06 21:54:04
Writing application         : mkvmerge v23.0.0 ('The Bride Said No') 64-bit
Writing library             : libebml v1.3.6 + libmatroska v1.4.9

Video
ID                          : 1
Format                      : HEVC
Format/Info                 : High Efficiency Video Coding
Commercial name             : HDR10
Format profile              : Main 10@L5.1@High
Codec ID                    : V_MPEGH/ISO/HEVC
Duration                    : 1 h 37 min
Bit rate                    : 51.6 Mb/s
Width                       : 3 840 pixels
Height                      : 2 160 pixels
Display aspect ratio        : 16:9
Frame rate mode             : Constant
Frame rate                  : 23.976 (24000/1001) FPS
Color space                 : YUV
Chroma subsampling          : 4:2:0 (Type 2)
Bit depth                   : 10 bits
Bits/(Pixel*Frame)          : 0.259
Stream size                 : 35.1 GiB (92%)
Language                    : English
Default                     : Yes
Forced                      : No
Color range                 : Limited
Color primaries             : BT.2020
Transfer characteristics    : PQ
Matrix coefficients         : BT.2020 non-constant
Mastering display color pri : Display P3
Mastering display luminance : min: 0.0001 cd/m2, max: 1000 cd/m2
Maximum Content Light Level : 1000 cd/m2
Maximum Frame-Average Light : 1000 cd/m2

Audio #1
ID                          : 2
Format                      : AC-3
Format/Info                 : Audio Coding 3
Commercial name             : Dolby Digital
Codec ID                    : A_AC3
Duration                    : 1 h 37 min
Bit rate mode               : Constant
Bit rate                    : 384 kb/s
Channel(s)                  : 6 channels
Channel layout              : L R C LFE Ls Rs
Sampling rate               : 48.0 kHz
Frame rate                  : 31.250 FPS (1536 SPF)
Bit depth                   : 16 bits
Compression mode            : Lossy
Stream size                 : 267 MiB (1%)
Title                       : iTunes
Language                    : Russian
Service kind                : Complete Main
Default                     : Yes
Forced                      : Yes

Audio #2
ID                          : 3
Format                      : AC-3
Format/Info                 : Audio Coding 3
Commercial name             : Dolby Digital
Codec ID                    : A_AC3
Duration                    : 1 h 37 min
Bit rate mode               : Constant
Bit rate                    : 160 kb/s
Channel(s)                  : 2 channels
Channel layout              : L R
Sampling rate               : 48.0 kHz
Frame rate                  : 31.250 FPS (1536 SPF)
Bit depth                   : 16 bits
Compression mode            : Lossy
Stream size                 : 111 MiB (0%)
Title                       : iTunes
Language                    : Ukrainian
Service kind                : Complete Main
Default                     : No
Forced                      : No

Audio #3
ID                          : 4
Format                      : MLP FBA 16-ch
Format/Info                 : Meridian Lossless Packing FBA with 16-channel presentation
Commercial name             : Dolby TrueHD with Dolby Atmos
Codec ID                    : A_TRUEHD
Duration                    : 1 h 37 min
Bit rate mode               : Variable
Bit rate                    : 3 186 kb/s
Maximum bit rate            : 4 224 kb/s
Channel(s)                  : 8 channels
Channel layout              : L R C LFE Ls Rs Lb Rb
Sampling rate               : 48.0 kHz
Frame rate                  : 1 200.000 FPS (40 SPF)
Compression mode            : Lossless
Stream size                 : 2.17 GiB (6%)
Title                       : Original
Language                    : English
Default                     : No
Forced                      : No
Number of dynamic objects   : 11
Bed channel count           : 1 channel
Bed channel configuration   : LFE

Audio #4
ID                          : 5
Format                      : AC-3
Format/Info                 : Audio Coding 3
Commercial name             : Dolby Digital
Codec ID                    : A_AC3
Duration                    : 1 h 37 min
Bit rate mode               : Constant
Bit rate                    : 640 kb/s
Channel(s)                  : 6 channels
Channel layout              : L R C LFE Ls Rs
Sampling rate               : 48.0 kHz
Frame rate                  : 31.250 FPS (1536 SPF)
Bit depth                   : 16 bits
Compression mode            : Lossy
Stream size                 : 446 MiB (1%)
Language                    : English
Service kind                : Complete Main
Default                     : No
Forced                      : No

Text #1
ID                          : 6
Format                      : UTF-8
Codec ID                    : S_TEXT/UTF8
Codec ID/Info               : UTF-8 Plain Text
Duration                    : 1 h 36 min
Bit rate                    : 0 b/s
Count of elements           : 5
Stream size                 : 171 Bytes (0%)
Title                       : Forced
Language                    : Russian
Default                     : Yes
Forced                      : Yes

Text #2
ID                          : 7
Format                      : UTF-8
Codec ID                    : S_TEXT/UTF8
Codec ID/Info               : UTF-8 Plain Text
Duration                    : 1 h 36 min
Bit rate                    : 76 b/s
Count of elements           : 1118
Stream size                 : 54.4 KiB (0%)
Title                       : Full
Language                    : Russian
Default                     : No
Forced                      : No

Text #3
ID                          : 8
Format                      : UTF-8
Codec ID                    : S_TEXT/UTF8
Codec ID/Info               : UTF-8 Plain Text
Duration                    : 1 h 36 min
Bit rate                    : 71 b/s
Count of elements           : 1118
Stream size                 : 50.4 KiB (0%)
Title                       : Full
Language                    : Ukrainian
Default                     : No
Forced                      : No

Text #4
ID                          : 9
Format                      : UTF-8
Codec ID                    : S_TEXT/UTF8
Codec ID/Info               : UTF-8 Plain Text
Duration                    : 1 h 26 min
Bit rate                    : 47 b/s
Count of elements           : 1098
Stream size                 : 30.1 KiB (0%)
Title                       : Full
Language                    : English
Default                     : No
Forced                      : No

Menu
00:00:00.000                : en:00:00:00.000
00:04:28.935                : en:00:04:28.935
00:09:34.824                : en:00:09:34.824
00:16:02.044                : en:00:16:02.044
00:20:03.077                : en:00:20:03.077
00:24:34.932                : en:00:24:34.932
00:31:12.537                : en:00:31:12.537
00:36:49.207                : en:00:36:49.207
00:44:04.725                : en:00:44:04.725
00:49:57.703                : en:00:49:57.703
00:54:49.745                : en:00:54:49.745
01:00:34.881                : en:01:00:34.881
01:06:12.010                : en:01:06:12.010
01:10:32.270                : en:01:10:32.270
01:13:46.380                : en:01:13:46.380
01:24:56.550                : en:01:24:56.550



Скриншоты:
[+] Всего файлов в раздаче - 1:
Hotel.Transylvania.3.2018.UHD.2160p.BDRemux.TeamHD.mkv38.12 GB

Текущая раздача:
ДатаКомментарии    РазмерПиры
2018-10-08 U Монстры на каникулах 3: Море зовёт / Hotel Transylvania 3: Summer Vacation (2018) UHD BDRemux 2160p от TeamHD | 4K | HDR | iTunes 38.12 GB ↑ 42 ↓ 14

Показать еще раздачи по запросу монстры:
2018-09-30 U Монстры на каникулах 3: Море зовёт / Hotel Transylvania 3: Summer Vacation (2018) BDRip 1080p от qqss44 & MegaPeer | iTunes 5.36 GB ↑ 364 ↓ 162
2018-09-30 U Монстры на каникулах 3: Море зовёт / Hotel Transylvania 3: Summer Vacation (2018) HDRip от Scarabey | iTunes 747.04 MB ↑ 86 ↓ 14
2018-09-30 U Монстры на каникулах 3: Море зовёт / Hotel Transylvania 3: Summer Vacation (2018) BDRip-AVC от HELLYWOOD | iTunes 1.40 GB ↑ 136 ↓ 37
2018-09-29 U Монстры на каникулах 3: Море зовёт / Hotel Transylvania 3: Summer Vacation (2018) HDRip от Kaztorrents | КПК | iTunes 370.34 MB ↑ 113 ↓ 12
2018-09-29 U Монстры на каникулах 3: Море зовёт / Hotel Transylvania 3: Summer Vacation (2018) HDRip от Scarabey | iTunes 1К1.40 GB ↑ 82 ↓ 24
2018-09-28 U Монстры на каникулах 3: Море зовёт / Hotel Transylvania 3: Summer Vacation (2018) BDRip от ExKinoRay | iTunes 1.42 GB ↑ 128 ↓ 52
2018-09-28 U Монстры на каникулах 3: Море зовёт / Hotel Transylvania 3: Summer Vacation (2018) BDRip-AVC от HELLYWOOD | iTunes 2.14 GB ↑ 130 ↓ 37

Отзывы
Зарегистрируйтесь чтобы добавить комментарий.
Обратная связь
Copyleft ©