↑↓Torrent.by
Поиск
Логин: Регистрация
Пароль: Восстановить пароль
Загрузка...

Вторжение / Проникновение / Breaking In (2018) BDRip 1080p | Театральная версия | iTunes

Скачать vtorzhenie-proniknovenie-breaking-in-2018-bdrip-1080p-teatralnaya-versiya-itunes.torrent
U Магнитная ссылка Размер: 7.74 GB Раздают: 242 Качают: 196 Добавлен: 2018-10-08 19:17:19
Вторжение / Проникновение / Breaking In (2018) BDRip 1080p | Театральная версия | iTunes

«Payback is a Mother»

Название: Вторжение
Оригинальное название: Breaking In
Год выхода: 2018
Жанр: Боевик, триллер, драма, криминал
Режиссер: Джеймс МакТиг
В ролях: Гэбриэл Юнион, Билли Бёрк, Ричард Кебрал, Аджиона Алексус, Леви Миден, Сет Карр, Марк Фурз, Джейсон Уинстон Джордж, Криста Миллер, Дэмиен Лик

О фильме:
Мать с двумя детьми после смерти отца приезжает в уединённый дом, чтобы разобраться с делами усопшего. Особняк оборудован по последнему слову техники и готов к продолжительной осаде. Спокойствие нарушает группа бандитов, мечтающая добраться до миллионов, скрытых в хранилище особняка. Но никакие ловушки или непробиваемые двери не смогут остановить разъярённую мать, когда её детям грозит опасность

Страна: США, Япония
Студия: Breaking In Pictures, Dentsu, Fuji Television Network Inc., Will Packer Productions
Продолжительность: 01:28:01
Перевод: Профессиональный (полное дублирование) | iTunes

Файл
Качество: BDRip 1080p
Формат: MKV
Кодек: MPEG-4 AVC
Видео: 1920x804 (2,40:1), 23,976 fps, MPEG-4 AVC ~ 10,7 Мbps avg, 0.289 bit/pixel
Аудио: AC3, 48 kHz, 6 ch, ~384.00 kbps avg | русский | iTunes
Аудио: DTS, 48 kHz, 6 ch, ~1509.00 kbps avg | английский | Оригинал

Субтитры: Английские (Full)
Семпл


[+] Инфо-файл
Общее
Уникальный идентификатор                 : 77737185754427786368940987797606733770 (0x3A7BA32B93C012B8783C9CD1D85397CA)
Полное имя                               : Breaking.In.2018.BluRay.1080p.DD.5.1.x264.Rus.Eng.mkv
Формат                                   : Matroska
Версия формата                           : Version 4 / Version 2
Размер файла                             : 7,74 Гбайт
Продолжительность                        : 1 ч. 28 м.
Общий поток                              : 12,6 Мбит/сек
Название фильма                          : Вторжение / Breaking In (2018)
Дата кодирования                         : UTC 2018-10-08 07:39:01
Программа кодирования                    : mkvmerge v27.0.0 ('Metropolis') 64-bit
Библиотека кодирования                   : libebml v1.3.6 + libmatroska v1.4.9

Видео
Идентификатор                            : 1
Формат                                   : AVC
Формат/Информация                        : Advanced Video Codec
Профиль формата                          : High@L4.1
Настройки формата                        : CABAC / 4 Ref Frames
Параметр CABAC формата                   : Да
Параметр RefFrames формата               : 4 кадра
Идентификатор кодека                     : V_MPEG4/ISO/AVC
Продолжительность                        : 1 ч. 28 м.
Битрейт                                  : 10,7 Мбит/сек
Ширина                                   : 1920 пикселей
Высота                                   : 804 пикселя
Соотношение сторон                       : 2,40:1
Режим частоты кадров                     : Постоянный
Частота кадров                           : 23,976 (24000/1001) кадра/сек
Цветовое пространство                    : YUV
Субдискретизация насыщенности            : 4:2:0
Битовая глубина                          : 8 бит
Тип развёртки                            : Прогрессивная
Бит/(Пиксели*Кадры)                      : 0.289
Размер потока                            : 6,57 Гбайт (85%)
Заголовок                                : Breaking.In.2018.BluRay.1080p.DD.5.1.x264.Rus.Eng
Библиотека кодирования                   : x264 core 155 r2867+74 66b5600 t_mod_Custom_2 [8-bit@all X86_64]
Настройки программы                      : cabac=1 / ref=4 / deblock=1:-3:-3 / analyse=0x3:0x113 / me=umh / subme=10 / psy=1 / fade_compensate=0.00 / psy_rd=0.90:0.10 / mixed_ref=1 / me_range=48 / chroma_me=1 / trellis=2 / 8x8dct=1 / cqm=0 / deadzone=21,11 / fast_pskip=0 / chroma_qp_offset=-2 / threads=18 / lookahead_threads=3 / sliced_threads=0 / nr=0 / decimate=1 / interlaced=0 / bluray_compat=0 / constrained_intra=0 / fgo=0 / bframes=8 / b_pyramid=2 / b_adapt=2 / b_bias=0 / direct=3 / weightb=1 / open_gop=0 / weightp=2 / keyint=250 / keyint_min=23 / scenecut=40 / intra_refresh=0 / rc_lookahead=40 / rc=crf / mbtree=0 / crf=18.0000 / qcomp=0.70 / qpmin=0:0:0 / qpmax=69:69:69 / qpstep=4 / vbv_maxrate=35000 / vbv_bufsize=35000 / crf_max=0.0 / nal_hrd=none / filler=0 / ip_ratio=1.40 / pb_ratio=1.30 / aq=3:0.90 / aq-sensitivity=10.00 / aq-factor=1.00:1.00:1.00 / aq2=0 / aq3=2:[0.50:0.50]:[0.50:0.50]:[0.50:0.50]:[0.50:0.50] / aq3-sensitivity=10.00 / aq3-factor=[1.00:1.00]:[1.00:1.00]:[1.00:1.00] / aq3-boundary=192:64:24
Язык                                     : English
Default                                  : Да
Forced                                   : Нет
Цветовой диапазон                        : Limited
Коэффициенты матрицы                     : BT.709

Аудио #1
Идентификатор                            : 2
Формат                                   : AC-3
Формат/Информация                        : Audio Coding 3
Идентификатор кодека                     : A_AC3
Продолжительность                        : 1 ч. 27 м.
Вид битрейта                             : Постоянный
Битрейт                                  : 384 Кбит/сек
Каналы                                   : 6 каналов
Расположение каналов                     : Front: L C R, Side: L R, LFE
Частота                                  : 48,0 КГц
Частота кадров                           : 31,250 кадров/сек (1536 SPF)
Битовая глубина                          : 16 бит
Метод сжатия                             : С потерями
Размер потока                            : 242 Мбайт (3%)
Заголовок                                : iTunes
Язык                                     : Russian
Default                                  : Да
Forced                                   : Нет

Аудио #2
Идентификатор                            : 3
Формат                                   : DTS
Формат/Информация                        : Digital Theater Systems
Идентификатор кодека                     : A_DTS
Продолжительность                        : 1 ч. 28 м.
Вид битрейта                             : Постоянный
Битрейт                                  : 1509 Кбит/сек
Каналы                                   : 6 каналов
Расположение каналов                     : Front: L C R, Side: L R, LFE
Частота                                  : 48,0 КГц
Частота кадров                           : 93,750 кадра/сек (512 SPF)
Битовая глубина                          : 24 бит
Метод сжатия                             : С потерями
Размер потока                            : 950 Мбайт (12%)
Язык                                     : English
Default                                  : Нет
Forced                                   : Нет

Текст
Идентификатор                            : 4
Формат                                   : UTF-8
Идентификатор кодека                     : S_TEXT/UTF8
Идентификатор кодека/Информация          : UTF-8 Plain Text
Продолжительность                        : 1 ч. 24 м.
Битрейт                                  : 35 бит/сек
ElementCount                             : 673
Размер потока                            : 22,2 Кбайт (0%)
Заголовок                                : full
Язык                                     : English
Default                                  : Да
Forced                                   : Нет

Меню
00:00:00.000                             : en:00:00:00.000
00:05:16.233                             : en:00:05:16.233
00:10:03.728                             : en:00:10:03.728
00:14:04.594                             : en:00:14:04.594
00:17:30.091                             : en:00:17:30.091
00:21:44.970                             : en:00:21:44.970
00:25:34.867                             : en:00:25:34.867
00:31:09.034                             : en:00:31:09.034
00:36:50.250                             : en:00:36:50.250
00:40:48.071                             : en:00:40:48.071
00:44:20.324                             : en:00:44:20.324
00:50:27.691                             : en:00:50:27.691
00:54:23.886                             : en:00:54:23.886
01:00:17.572                             : en:01:00:17.572
01:04:23.359                             : en:01:04:23.359
01:09:53.398                             : en:01:09:53.398
01:13:10.886                             : en:01:13:10.886
01:16:16.071                             : en:01:16:16.071
01:20:52.264                             : en:01:20:52.264
01:25:26.121                             : en:01:25:26.121



Скриншоты:
[+] Всего файлов в раздаче - 1:
Breaking.In.2018.BluRay.1080p.DD.5.1.x264.Rus.Eng.mkv7.74 GB

Текущая раздача:
ДатаКомментарии    РазмерПиры
2018-10-08 U Вторжение / Проникновение / Breaking In (2018) BDRip 1080p | Театральная версия | iTunes 7.74 GB ↑ 242 ↓ 196

Показать еще раздачи по запросу вторжение:
2018-10-09 U Вторжение / Проникновение / Breaking In (2018) BDRip от ExKinoRay | Театральная версия | iTunes 1К1.42 GB ↑ 95 ↓ 4
2018-10-08 U Вторжение / Проникновение / Breaking In (2018) BDRip от MegaPeer | Театральная версия | iTunes 1.42 GB ↑ 524 ↓ 191
2018-09-06 U Вторжение / Breaking In (2018) WEBRip 2160p от MediaClub | HDR | Расширенная версия | HDrezka Studio 11.40 GB ↑ 30 ↓ 19
2016-10-19 U Вторжение 2. Обреченные (2016) PC 548.66 MB ↑ 201 ↓ 18
2016-06-07 U Вторжение. Битва за рай / Tomorrow. When The War Began [S01] (2016) PDTVRip | Jaskier 1.61 GB ↑ 101 ↓ 33
2016-05-02 U Вторжение. Битва за рай / Tomorrow. When The War Began [01x01-02 из 06] (2016) PDTVRip | Jaskier 551.99 MB ↑ 90 ↓ 38
2014-11-05 U Вторжение в Лос-Анджелес / Apocalypse L.A. (2014) DVDRip | L 1.36 GB ↑ 729 ↓ 176

Отзывы
Зарегистрируйтесь чтобы добавить комментарий.
Обратная связь
Copyleft ©