↑↓Torrent.by
Поиск
Логин: Регистрация
Пароль: Восстановить пароль
Загрузка...

Коллекторы / The Debt Collector (2018) BDRip-AVC от ExKinoRay | iTunes

Скачать kollektory-the-debt-collector-2018-bdrip-avc-ot-exkinoray-itunes.torrent
U Магнитная ссылка Размер: 1.78 GB Раздают: 126 Качают: 26 Добавлен: 2018-10-09 05:36:14
Коллекторы / The Debt Collector (2018) BDRip-AVC от ExKinoRay | iTunes

Название: Коллекторы
Оригинальное название: The Debt Collector
Год выпуска: 2018
Жанр:  Боевик
Режиссер: Джесси Джонсон
В ролях: Скотт Эдкинс, Майкл Паре, Тони Тодд, Владимир Кулих, Роберт Раслер, Луис Мэндилор, Селина Ло, Нихан Гар, Сара Финли, Ессам Феррис

О фильме:
Чтобы спасти свою школу, мастер смешанных боевых искусств нанимается коллектором к криминальному авторитету, но сталкивается с необходимостью адаптировать свои моральные устои к беспощадным правилам мира больших денег.

Страна: США
Студия: Tarzana Product
Продолжительность: 01:35:55
Перевод: Дублированный | iTunes

Кодек: х264
Качество: BDRip-AVC
Видео: MPEG-4 AVC, 1024x436 (2.85:1), 23,976 fps, ~ 1832 kbps
Аудио #01: 48 kHz, AC3, 5.1, 384 Kbps | iTunes | RUS |
Аудио #02: 48 kHz, AC3, 5.1, 448 Kbps | Оригинал |  ENG |
Субтитры: Aнглийские
Навигация по главам: Есть

Релиз:

Автор релиза:


[+] МИ
General
Unique ID                                : 236981820008548707094733129496934653643 (0xB24909D0D88AAB6FA90FD9CCD5BE9ECB)
Complete name                            : D:The.Debt.Collector.2018.BDRip.AVC.ExKinoRay.mkv
Format                                   : Matroska
Format version                           : Version 2
File size                                : 1.78 GiB
Duration                                 : 1 h 35 min
Overall bit rate                         : 2 664 kb/s
Movie name                               : The Debt Collector 2018 from ExKinoRay
Encoded date                             : UTC 2018-10-08 04:29:42
Writing application                      : mkvmerge v5.6.0 ('Kenya Kane') built on May 27 2012 16:44:04
Writing library                          : libebml v1.2.3 + libmatroska v1.3.0

Video
ID                                       : 1
Format                                   : AVC
Format/Info                              : Advanced Video Codec
Format profile                           : High@L4.1
Format settings, CABAC                   : Yes
Format settings, ReFrames                : 12 frames
Codec ID                                 : V_MPEG4/ISO/AVC
Duration                                 : 1 h 35 min
Bit rate                                 : 1 832 kb/s
Width                                    : 1 024 pixels
Height                                   : 436 pixels
Display aspect ratio                     : 2.35:1
Frame rate mode                          : Constant
Frame rate                               : 23.976 (23976/1000) FPS
Color space                              : YUV
Chroma subsampling                       : 4:2:0
Bit depth                                : 8 bits
Scan type                                : Progressive
Bits/(Pixel*Frame)                       : 0.171
Stream size                              : 1.19 GiB (67%)
Title                                    : Enigma
Writing library                          : x264 core 152 r2851 ba24899
Encoding settings                        : cabac=1 / ref=12 / deblock=1:-2:-2 / analyse=0x3:0x113 / me=umh / subme=10 / psy=1 / psy_rd=1.05:0.10 / mixed_ref=1 / me_range=32 / chroma_me=1 / trellis=2 / 8x8dct=1 / cqm=0 / deadzone=21,11 / fast_pskip=0 / chroma_qp_offset=-3 / threads=12 / lookahead_threads=3 / sliced_threads=0 / nr=0 / decimate=0 / interlaced=0 / bluray_compat=0 / constrained_intra=0 / bframes=10 / b_pyramid=2 / b_adapt=2 / b_bias=0 / direct=3 / weightb=1 / open_gop=0 / weightp=2 / keyint=240 / keyint_min=23 / scenecut=40 / intra_refresh=0 / rc=2pass / mbtree=0 / bitrate=1832 / ratetol=1.0 / qcomp=0.60 / qpmin=0 / qpmax=51 / qpstep=4 / cplxblur=20.0 / qblur=0.5 / ip_ratio=1.40 / pb_ratio=1.30 / aq=2:0.90
Language                                 : English
Default                                  : Yes
Forced                                   : No
Color range                              : Limited
Color primaries                          : BT.709
Transfer characteristics                 : BT.709
Matrix coefficients                      : BT.709

Audio #1
ID                                       : 2
Format                                   : AC-3
Format/Info                              : Audio Coding 3
Mode extension                           : CM (complete main)
Format settings, Endianness              : Big
Codec ID                                 : A_AC3
Duration                                 : 1 h 35 min
Bit rate mode                            : Constant
Bit rate                                 : 384 kb/s
Channel(s)                               : 6 channels
Channel positions                        : Front: L C R, Side: L R, LFE
Sampling rate                            : 48.0 kHz
Frame rate                               : 31.250 FPS (1536 spf)
Compression mode                         : Lossy
Stream size                              : 263 MiB (14%)
Title                                    : iTunes
Language                                 : Russian
Default                                  : Yes
Forced                                   : No

Audio #2
ID                                       : 3
Format                                   : AC-3
Format/Info                              : Audio Coding 3
Mode extension                           : CM (complete main)
Format settings, Endianness              : Big
Codec ID                                 : A_AC3
Duration                                 : 1 h 35 min
Bit rate mode                            : Constant
Bit rate                                 : 448 kb/s
Channel(s)                               : 6 channels
Channel positions                        : Front: L C R, Side: L R, LFE
Sampling rate                            : 48.0 kHz
Frame rate                               : 31.250 FPS (1536 spf)
Compression mode                         : Lossy
Stream size                              : 307 MiB (17%)
Language                                 : English
Default                                  : No
Forced                                   : No

Text
ID                                       : 4
Format                                   : UTF-8
Codec ID                                 : S_TEXT/UTF8
Codec ID/Info                            : UTF-8 Plain Text
Language                                 : English
Default                                  : No
Forced                                   : No

Menu
00:00:00.000                             : en:00:00:00.000
00:02:04.624                             : en:00:02:04.624
00:11:30.648                             : en:00:11:30.648
00:21:04.472                             : en:00:21:04.472
00:32:42.669                             : en:00:32:42.669
00:42:33.926                             : en:00:42:33.926
00:47:42.485                             : en:00:47:42.485
00:53:09.895                             : en:00:53:09.895
01:02:11.061                             : en:01:02:11.061
01:09:34.962                             : en:01:09:34.962
01:24:34.945                             : en:01:24:34.945
01:32:50.273                             : en:01:32:50.273




Скриншоты:
[+] Всего файлов в раздаче - 1:
The.Debt.Collector.2018.BDRip.AVC.ExKinoRay.mkv1.78 GB

Текущая раздача:
ДатаКомментарии    РазмерПиры
2018-10-09 U Коллекторы / The Debt Collector (2018) BDRip-AVC от ExKinoRay | iTunes 1.78 GB ↑ 126 ↓ 26

Показать еще раздачи по запросу коллекторы:
2018-10-10 U Коллекторы / The Debt Collector (2018) BDRip от ExKinoRay | iTunes 1К1.42 GB ↑ 92 ↓ 21
2018-10-09 U Коллекторы / The Debt Collector (2018) HDRip-AVC | iTunes 743.23 MB ↑ 60 ↓ 16
2018-10-09 U Коллекторы / The Debt Collector (2018) HDRip от Scarabey | iTunes 1.40 GB ↑ 89 ↓ 20
2018-10-09 U Коллекторы / The Debt Collector (2018) BDRip 720p от k.e.n & MegaPeer | iTunes 3.57 GB ↑ 186 ↓ 32
2018-10-08 U Коллекторы / The Debt Collector (2018) BDRip 720p от TeamHD | iTunes 3.38 GB ↑ 48 ↓ 34
2018-10-08 U Коллекторы / The Debt Collector (2018) BDRip 1080p от TeamHD | iTunes 7.24 GB ↑ 80 ↓ 40
2018-10-08 U Коллекторы / The Debt Collector (2018) BDRip от MegaPeer | iTunes 1.42 GB ↑ 199 ↓ 66

Отзывы
Зарегистрируйтесь чтобы добавить комментарий.
Обратная связь
Copyleft ©