↑↓Torrent.by
Поиск
Логин: Регистрация
Пароль: Восстановить пароль
Загрузка...

Динозавр [01-02 из 10] (2018) WEBRip от GeneralFilm

Скачать dinozavr-01-02-iz-10-2018-webrip-ot-generalfilm.torrent
U Магнитная ссылка Размер: 1.09 GB Раздают: 168 Качают: 61 Добавлен: 2018-10-09 19:10:13
Динозавр [01-02 из 10] (2018) WEBRip от GeneralFilm

Оригинальное название: Динозавр
Год выпуска: 2018
Жанр:  Криминал, мелодрама
Режиссер: Евгений Серов, Всеволод Аравин, Олег Компасов
В ролях: Андрей Смирнов, Александр Панкратов-Чёрный, Евгений Миллер, Анна Васильева, Максим Литовченко, Михаил Евланов, Ольга Тумайкина, Илья Любимов, Сергей Епишев, Александр Берда, Илья Ильин, Роман Полянский, Александра Мареева, Ольга Филиппова, Юрий Чурсин, Елена Сафонова, Геннадий Яковлев, Сергей Жигунов, Валерий Новиков, Александр Вдовин, Юрий Сысоев (I), Светлана Немоляева, Галина Петрова, Борис Смолкин, Борис Невзоров, Иван Лакшин, Борис Токарев, Сергей Сосновский, Михаил Горский

О фильме:
Престарелый криминальный авторитет Семен Тимофеевич Бабушкин, о чьем воровском таланте в свое время слагали легенды, последние 35 лет Семен Тимофеевич не выходил из тюрьмы, предпочитая ее свободе, где у него не осталось ни друзей, ни родных. Но однажды Бабушкин получает письмо, из которого узнает, что у него, оказывается, все-таки есть на воле кровиночка, сын Слава. По иронии судьбы, младший Бабушкин служит следователем в органах, но в настоящее время нуждается в помощи - его серьезно подставили, и под угрозой оказалась не только его жизнь, но и безопасность его дочери. Тогда благородный бандит принимается налаживать свои старые связи и навыки, чтобы вытащить новоявленную семью из беды.

Страна: Россия
Студия: Продюсерский центр Сергея Жигунова
Продолжительность: 2 x ~ 00:47:00
Перевод: Не требуется
Субтитры: нет

Файл
Формат: avi
Качество: WEBRip
Видео: XviD build 73, 720x400 (16:9), 25.000 fps, ~ 1450 Kbps (~ 0.200 bit/pixel)
Звук: 48.0 kHz, AC3, 2/0 ch, 192 kbps

Релиз:


[+] MediaInfo
General
Complete name               : D:RazdachiDinozavr.2018.XviD.WEBRip.GeneralFilmDinozavr.e01.avi
Format                      : AVI
Format/Info                 : Audio Video Interleave
File size                   : 557 MiB
Duration                    : 47 min 10 s
Overall bit rate            : 1 651 kb/s
Writing application         : VirtualDubMod 1.5.10.3 | www.virtualdub-fr.org || (build 2550/release)
Writing library             : VirtualDubMod build 2550/release

Video
ID                          : 0
Format                      : MPEG-4 Visual
Format profile              : Advanced Simple@L5
Format settings, BVOP       : 1
Format settings, QPel       : No
Format settings, GMC        : No warppoints
Format settings, Matrix     : Custom
Codec ID                    : XVID
Codec ID/Hint               : XviD
Duration                    : 47 min 10 s
Bit rate                    : 1 450 kb/s
Width                       : 720 pixels
Height                      : 400 pixels
Display aspect ratio        : 16:9
Frame rate                  : 25.000 FPS
Color space                 : YUV
Chroma subsampling          : 4:2:0
Bit depth                   : 8 bits
Scan type                   : Progressive
Compression mode            : Lossy
Bits/(Pixel*Frame)          : 0.201
Stream size                 : 489 MiB (88%)
Writing library             : XviD 73

Audio
ID                          : 1
Format                      : AC-3
Format/Info                 : Audio Coding 3
Format settings, Endianness : Big
Codec ID                    : 2000
Duration                    : 47 min 10 s
Bit rate mode               : Constant
Bit rate                    : 192 kb/s
Channel(s)                  : 2 channels
Channel positions           : Front: L R
Sampling rate               : 48.0 kHz
Frame rate                  : 31.250 FPS (1536 SPF)
Bit depth                   : 16 bits
Compression mode            : Lossy
Stream size                 : 64.8 MiB (12%)
Alignment                   : Split accross interleaves
Interleave, duration        : 40  ms (1.00 video frame)
Interleave, preload duratio : 500  ms
Service kind                : Complete Main



Скриншоты:
[+] Всего файлов в раздаче - 2:
Dinozavr.e01.avi557.11 MB
Dinozavr.e02.avi556.81 MB

Текущая раздача:
ДатаКомментарии    РазмерПиры
2018-10-09 U Динозавр [01-02 из 10] (2018) WEBRip от GeneralFilm 1.09 GB ↑ 168 ↓ 61

Показать еще раздачи по запросу динозавр:
2018-10-16 U Динозавр [S01] (2018) HDTVRip 4.35 GB ↑ 126 ↓ 217
2018-10-13 U Динозавр [01-10 из 10] (2018) WEBRip 1080p от MediaClub 19.23 GB ↑ 271 ↓ 208
2018-10-13 U Динозавр [01-10 из 10] (2018) WEBRip 720p от GeneralFilm 1К11.58 GB ↑ 199 ↓ 222
2018-10-13 U Динозавр [01-10 из 10] (2018) WEBRip от GeneralFilm 5.44 GB ↑ 127 ↓ 159
2018-10-13 U Динозавр [01-10 из 10] (2018) WEBRip-AVC от Files-x 6.87 GB ↑ 231 ↓ 179
2018-10-13 U Динозавр [01-10 из 10] (2018) WEBRip от Files-x 2К5.33 GB ↑ 347 ↓ 273
2018-10-13 U Динозавр [01-10 из 10] (2018) SATRip 5.67 GB ↑ 543 ↓ 496

Отзывы
Зарегистрируйтесь чтобы добавить комментарий.
Обратная связь
Copyleft ©