↑↓Torrent.by
Поиск
Логин: Регистрация
Пароль: Восстановить пароль
Загрузка...

Операция «Сатана» [01-05 из 08] (2018) WEB-DLRip от GeneralFilm

Скачать operaciya-satana-01-05-iz-08-2018-web-dlrip-ot-generalfilm.torrent
U Магнитная ссылка Размер: 2.72 GB Раздают: 118 Качают: 148 Добавлен: 2018-10-09 19:10:23
Операция «Сатана» [01-05 из 08] (2018) WEB-DLRip от GeneralFilm

Оригинальное название: Операция «Сатана»
Год выпуска: 2018
Жанр:  Детектив, криминал
Режиссер: Юрий Мороз
В ролях: Андрей Смоляков, Марина Александрова, Даниэла Стоянович, Владимир Юматов, Сергей Угрюмов, Луиза Мосендз, Яна Сексте, Владимир Ильин, Виктория Исакова, Александр Домогаров, Сергей Колтаков, Игорь Гордин, Александра Ребенок, Александр Голубев, Софья Евстигнеева, Лариса Удовиченко, Юрий Чурсин, Алексей Бардуков, Филипп Гуревич, Дмитрий Куличков, Юрий Тарасов

О фильме:
1975 год - холодная война между СССР и США, гонка вооружений. Напряженно работают физики-ядерщики. В Советском Союзе становится очевидной утечка секретной информации о разработке ракеты «Сатана». Казалось бы, как может быть связан майор милиции с разведкой спецслужб? Однако именно он, Иван Петрович, уволенный из МУРа, трудящийся обычным участковым, оказывает неоценимую помощь КГБ в поимке американского шпиона.

Страна: Россия
Студия: «Русский проект»
Продолжительность: 5 x ~ 00:50:00
Перевод: Не требуется
Субтитры: нет

Файл
Формат: avi
Качество: WEB-DLRip
Видео: XviD build 73, 720x400 (16:9), 25.000 fps, ~ 1400 Kbps (~ 0.200 bit/pixel)
Звук: 48.0 kHz, AC3, 2/0 ch, 192 kbps

Релиз:


[+] MediaInfo
General
Complete name               : D:RazdachiOperacija.Satana.2018.XviD.WEB-DLRip.GeneralFilmSatana.e02.avi
Format                      : AVI
Format/Info                 : Audio Video Interleave
File size                   : 557 MiB
Duration                    : 48 min 34 s
Overall bit rate            : 1 604 kb/s
Writing application         : VirtualDubMod 1.5.10.3 | www.virtualdub-fr.org || (build 2550/release)
Writing library             : VirtualDubMod build 2550/release

Video
ID                          : 0
Format                      : MPEG-4 Visual
Format profile              : Advanced Simple@L5
Format settings, BVOP       : 1
Format settings, QPel       : No
Format settings, GMC        : No warppoints
Format settings, Matrix     : Custom
Codec ID                    : XVID
Codec ID/Hint               : XviD
Duration                    : 48 min 34 s
Bit rate                    : 1 402 kb/s
Width                       : 720 pixels
Height                      : 400 pixels
Display aspect ratio        : 16:9
Frame rate                  : 25.000 FPS
Color space                 : YUV
Chroma subsampling          : 4:2:0
Bit depth                   : 8 bits
Scan type                   : Progressive
Compression mode            : Lossy
Bits/(Pixel*Frame)          : 0.195
Stream size                 : 487 MiB (87%)
Writing library             : XviD 73

Audio
ID                          : 1
Format                      : AC-3
Format/Info                 : Audio Coding 3
Format settings, Endianness : Big
Codec ID                    : 2000
Duration                    : 48 min 34 s
Bit rate mode               : Constant
Bit rate                    : 192 kb/s
Channel(s)                  : 2 channels
Channel positions           : Front: L R
Sampling rate               : 48.0 kHz
Frame rate                  : 31.250 FPS (1536 SPF)
Bit depth                   : 16 bits
Compression mode            : Lossy
Stream size                 : 66.7 MiB (12%)
Alignment                   : Split accross interleaves
Interleave, duration        : 40  ms (1.00 video frame)
Interleave, preload duratio : 500  ms
Service kind                : Complete Main



Скриншоты:
[+] Всего файлов в раздаче - 5:
Satana.e01.avi556.99 MB
Satana.e02.avi557.05 MB
Satana.e03.avi557.55 MB
Satana.e04.avi557.00 MB
Satana.e05.avi557.26 MB

Текущая раздача:
ДатаКомментарии    РазмерПиры
2018-10-09 U Операция «Сатана» [01-05 из 08] (2018) WEB-DLRip от GeneralFilm 2.72 GB ↑ 118 ↓ 148

Показать еще раздачи по запросу операция:
Вчера U Операция «Сатана» [01-08 из 08] (2018) HDTVRip 1080p 14.52 GB ↑ 103 ↓ 171
2018-10-12 U Операция «Сатана» [01-08 из 08] (2018) WEB-DLRip от Files-x 4.74 GB ↑ 89 ↓ 73
2018-10-12 U Операция «Сатана» [01-08 из 08] (2018) HDTV 1080i от GeneralFilm 16.28 GB ↑ 213 ↓ 398
2018-10-12 U Операция «Сатана» [01-07 из 08] (2018) WEB-DLRip от Files-x 1К4.16 GB ↑ 46 ↓ 33
2018-10-12 U Операция «Сатана» [01-08 из 08] (2018) HDTVRip 720p от GeneralFilm 10.13 GB ↑ 121 ↓ 87
2018-10-12 U Операция «Сатана» [01-08 из 08] (2018) HDTVRip от GeneralFilm 5.40 GB ↑ 235 ↓ 284
2018-10-12 U Операция «Сатана» [01-08 из 08] (2018) HDTVRip-AVC от Files-x 6.01 GB ↑ 51 ↓ 156

Отзывы
Зарегистрируйтесь чтобы добавить комментарий.
Обратная связь
Copyleft ©